Абатуар. Лабиринт страха / Abattoir (2016) HDRip [Line] скачать торрент

Reply to topic

DL-List and Torrent activity [Update пиров]
Size:  1.36 GB   |    Registered:  3 years 3 months   |    Completed:  6 times

Seeder not seen: 1 year 5 months

 
 
 
 
 
Author Message

BiOS ®

Longevity: 5 years 11 months

Posts: 2426

Location: Earth


Post 22-Dec-2016 09:37

[Quote]

Абатуар. Лабиринт страха / Abattoir«Пройди через ад на земле»- Производство: США
Жанр: Ужасы, Триллер
Режиссер: Даррен Линн Боусман
Актеры: Джессика Лаундес, Джо Андерсон, Дэйтон Калли, Лин Шэй, Джон МакКоннелл, Брайан Бэтт, Майкл Паре, Дж. ЛаРоуз, Джеки Таттл, Джэй Хьюджули.
Описание:
Вернувшись в дом, где была жестоко убита ее семья, Джулия обнаруживает, что комната, где произошло преступление, исчезла. Со своим парнем Декланом она выясняет, что такое случалось и с другими домами, где происходили страшные события. В это время в затерянном на карте месте некто строит настоящий ад на земле — чудовищное строение с уходящим в бесконечность лабиринтом жутких комнат, населенных призраками. Единственный способ разгадать тайну гибели семьи — это открыть двери страшного дома и пройти через все его ловушки. За ними скрывается правда, еще более ужасная, чем предполагала Джулия.
Возраст: 16+ (зрителям, достигшим 16 лет)
Рейтинг MPAA: R (лицам до 17 лет обязательно присутствие взрослого)
Дата мировой премьеры: 7 июня 2016
Дата российской премьеры: 24 ноября 2016, «Экспонента»
Продолжительность: 01:39:27
Качество видео: HDRip
Перевод: Дублированный
Субтитры: отсутствуют
Видео: Xvid, 720x304, ~1770 Kbps
Аудио: AC3, 2 ch, 192 Kbps

Mediainfo:

Код:
Общее
Формат                                   : AVI
Формат/Информация                        : Audio Video Interleave
Размер файла                             : 1,36 Гбайт
Продолжительность                        : 1 ч. 39 м.
Общий поток                              : 1971 Кбит/сек
Программа кодирования                    : VirtualDubMod 1.5.10.2 (build 2540/release)
Библиотека кодирования                   : VirtualDubMod build 2540/release
Видео
Идентификатор                            : 0
Формат                                   : MPEG-4 Visual
Профиль формата                          : Advanced [email protected]
Параметр BVOP формата                    : 2
Параметр QPel формата                    : Нет
Параметр GMC формата                     : Без точки перехода
Параметр матрицы формата                 : Выборочная
Идентификатор кодека                     : XVID
Идентификатор кодека/Подсказка           : XviD
Продолжительность                        : 1 ч. 39 м.
Битрейт                                  : 1770 Кбит/сек
Ширина                                   : 720 пикселей
Высота                                   : 304 пикселя
Соотношение сторон                       : 2,35:1
Частота кадров                           : 23,976 (24000/1001) кадра/сек
Цветовое пространство                    : YUV
Субдискретизация насыщенности            : 4:2:0
Битовая глубина                          : 8 бит
Тип развёртки                            : Прогрессивная
Метод сжатия                             : С потерями
Бит/(Пиксели*Кадры)                      : 0.337
Размер потока                            : 1,22 Гбайт (90%)
Библиотека кодирования                   : XviD 1.2.1 (UTC 2008-12-04)
Аудио
Идентификатор                            : 1
Формат                                   : AC-3
Формат/Информация                        : Audio Coding 3
Расширение режима                        : CM (complete main)
Параметр Endianness формата              : Big
Идентификатор кодека                     : 2000
Продолжительность                        : 1 ч. 39 м.
Вид битрейта                             : Постоянный
Битрейт                                  : 192 Кбит/сек
Каналы                                   : 2 канала
Расположение каналов                     : Front: L R
Частота                                  : 48,0 КГц
Частота кадров                           : 31,250 кадров/сек (1536 spf)
Метод сжатия                             : С потерями
Размер потока                            : 136 Мбайт (10%)
Выравнивание                             : Разделение по промежуткам
Продолжительность промежутка             : 42  мс. (1,00 видеокадр)
Время предзагрузки промежутка            : 500  мс.
-Скриншоты:


Смотреть онлайн


[trackeroc.ru].17311.torrent 
Torrent: Registered   [ 2016-12-22 09:37 ]

Скачать торрент

14 KB

Status: checked
Completed: 108 times
Size: 1.36 GB
 

Admin (22-дек-16)
Similar torrent
Forum Topic Author Size
Ужасы ,мистика ,триллеры Озеро страха: Наследие / Lake Placid: Legacy (2018) WEB-DLRip Admin 1.46 GB
Квесты, я ищу, Поиск предметов, Hidden Object Maze 4: Stolen Minds / Лабиринт 4: Захваченный разум [RUS / ENG] (2018) Admin 487 MB
Квесты, я ищу, Поиск предметов, Hidden Object Sable Maze 7: Nightmare Shadows / Темный лабиринт 7: Тени кошмара [RUS / ENG] (2017) Admin 1.12 GB
Квесты, я ищу, Поиск предметов, Hidden Object Maze 3: Nightmare Realm / Лабиринт 3: Царство кошмара [RUS / ENG] (2017) Admin 409 MB
Квесты, я ищу, Поиск предметов, Hidden Object Maze 2: The Broken Tower Collectors Edition / Лабиринт 2: Сломанная башня Коллекционное издание [P] [RUS / ENG] (2016) HOPE 784 MB

_________________
[Profile] [PM]
Display posts from previous:    
Reply to topic

The time now is: Today 02:02

All times are GMT + 4 Hours



You cannot post new topics in this forum
You cannot reply to topics in this forum
You cannot edit your posts in this forum
You cannot delete your posts in this forum
You cannot vote in polls in this forum
You cannot attach files in this forum
You can download files in this forum