Агата и правда об убийстве / Agatha and the Truth of Murder (2018) WEBRip [MVO] [AD] скачать торрент

Reply to topic

DL-List and Torrent activity [Update пиров]
Size:  1.32 GB   |    Registered:  11 months 24 days   |    Completed:  1 time

Seeder not seen: 11 months 8 days

 
 
 
 
 
Author Message

BiOS ®

Longevity: 5 years 9 months

Posts: 2408

Location: Earth


Post 03-Feb-2019 03:51

[Quote]

Агата и правда об убийстве / Agatha and the Truth of Murder - Производство: Великобритания / Darlow Smithson Productions
Жанр: Криминал
Режиссер: Терри Лоан
Продюсер: Бретт Уилсон, Emily Dalton, Том Далтон
Актеры: Ралф Айнесон, Рут Брэдли, Тим МакИннерни, Блейк Харрисон, Пиппа Хэйвуд, Майкл МакЭлхаттон, Бебе Кейв, Брайан МакКарди, Дин Эндрюс, Саманта Спиро
Описание:
1926 год. Столкнувшись с неприятностями в личной жизни и творческим кризисом, молодая Агата Кристи решает расследовать настоящее убийство.
Возраст: 12+ (зрителям, достигшим 12 лет)
Дата мировой премьеры: 23 декабря 2018
Продолжительность: 01:32:23
Качество видео: WEBRip
Перевод: Многоголосый закадровый, любительский (MUZOBOZ)
Субтитры: Присутствуют (русские, вшитые - на слова песни)
Реклама: Присутствуют вставки голосовой и текстовой рекламы
Видео: Xvid, 720x352, ~1650 Kbps
Аудио: AC3, 2 ch, 384 Kbps

Mediainfo:

Общее
Формат : AVI
Формат/Информация : Audio Video Interleave
Размер файла : 1,32 Гбайт
Продолжительность : 1 ч. 32 м.
Общий поток : 2043 Кбит/сек
Программа кодирования : VirtualDubMod 1.5.10.2 (build 2540/release)
Библиотека кодирования : VirtualDub build 35576/release
Видео
Идентификатор : 0
Формат : MPEG-4 Visual
Профиль формата : Advanced [email protected]
Настройки формата : BVOP2 / Custom Matrix
Параметр BVOP формата : 2
Параметр QPel формата : Нет
Параметр GMC формата : Без точки перехода
Параметр матрицы формата : Выборочная
Идентификатор кодека : XVID
Идентификатор кодека/Подсказка : XviD
Продолжительность : 1 ч. 32 м.
Битрейт : 1650 Кбит/сек
Ширина : 720 пикселей
Высота : 352 пикселя
Соотношение сторон : 2,045
Частота кадров : 23,976 (24000/1001) кадра/сек
Цветовое пространство : YUV
Субдискретизация насыщенности : 4:2:0
Битовая глубина : 8 бит
Тип развёртки : Прогрессивная
Метод сжатия : С потерями
Бит/(Пиксели*Кадры) : 0.271
Размер потока : 1,06 Гбайт (81%)
Библиотека кодирования : XviD 1.2.1 (UTC 2008-12-04)
Аудио
Идентификатор : 1
Формат : AC-3
Формат/Информация : Audio Coding 3
Коммерческое название : Dolby Digital
Идентификатор кодека : 2000
Продолжительность : 1 ч. 32 м.
Вид битрейта : Постоянный
Битрейт : 384 Кбит/сек
Каналы : 2 канала
Channel layout : L R
Частота : 48,0 КГц
Частота кадров : 31,250 кадров/сек (1536 SPF)
Битовая глубина : 16 бит
Метод сжатия : С потерями
Размер потока : 254 Мбайт (19%)
Выравнивание : Разделение по промежуткам
Продолжительность промежутка : 42 мс. (1,00 видеокадр)
Время предзагрузки промежутка : 500 мс.
ServiceKind/String : Complete Main
-Скриншоты:


Смотреть онлайн


[trackeroc.org].27548.torrent 
Torrent: Registered   [ 2019-02-03 03:51 ]

Скачать торрент

14 KB

Status: checked
Completed: 32 times
Size: 1.32 GB
 

Admin (03-фев-19)
Similar torrent
Forum Topic Author Size
Ужасы ,мистика ,триллеры Правда или действие / Truth or Dare (2018) Admin 747 MB

_________________
[Profile] [PM]
Display posts from previous:    
Reply to topic

The time now is: Today 01:24

All times are GMT + 4 Hours



You cannot post new topics in this forum
You cannot reply to topics in this forum
You cannot edit your posts in this forum
You cannot delete your posts in this forum
You cannot vote in polls in this forum
You cannot attach files in this forum
You can download files in this forum