Аванпост / The Outpost (2018) WEB-DL (сезон 1, серии 1-10 из 10) Lostfilm скачать торрент

Reply to topic

DL-List and Torrent activity [Update пиров]
Size:  19.17 GB   |    Registered:  20 days   |    Completed:  0 times

Seeder not seen: Never

 
 
 
 
 
Author Message

BiOS ®

Longevity: 5 years 5 months

Posts: 2337

Location: East Siberia


Post 25-Sep-2019 03:12

[Quote]

Аванпост / The Outpost «С ПРОБУЖДЕНИЕМ ВОИНА. ВОЗРОЖДАЕТСЯ ЛЕГЕНДА»- Производство: США / Arrowstorm Entertainment
Жанр: фэнтези, боевик
Режиссер: Джон Лойд, Курт Найт, Кайнен Гриффин
Актеры: Джессика Грин, Джейк Стормоен, Эндрю Ховард, Имоджен Уотерхаус, Ананд Десаи-Барочиа, Робин Малкольм, Кристиан Нэрн и др.
Описание:
В центре сюжета оказывается представительница расы Чернокровок — Тэлон. Она ищет убийц своей семьи, следы которых ведут в крепость, находящуюся на границе обитаемых земель. Во время путешествия девушка обнаруживает у себя сверхъестественные способности, которыми ей придется овладеть, чтобы спасти себя и защитить мир от фанатичного религиозного диктатора.

Дата мировой премьеры: 10 июля 2018
Продолжительность: ~00:44:00 серия
Качество видео: WEB-DL
Перевод: Многоголосый закадровый, профессиональный (Lostfilm)
Видео: AVC/H.264, 1920x1080 (16:9), ~5242 кbps
Аудио # 1: AC-3, 2 ch, 384 kbps, русский, многоголосый закадровый
Аудио # 2: AC-3, 2 ch, 384 kbps, английский

Mediainfo:

Уникальный идентификатор                 : 171840727489185534681343270458075908155 (0x814751FD748E645593F6B21C9F44083B)
Полное имя : The.Outpost.S01E01.1080p.rus.LostFilm.TV.mkv
Формат : Matroska
Версия формата : Version 4 / Version 2
Размер файла : 1,79 Гбайт
Продолжительность : 42 м. 35 с.
Общий поток : 6009 Кбит/сек
Дата кодирования : UTC 2018-07-13 09:05:30
Программа кодирования : mkvmerge v7.7.0 ('Six Voices') 64bit built on Feb 28 2015 23:39:33
Библиотека кодирования : libebml v1.3.1 + libmatroska v1.4.2
Видео
Идентификатор : 1
Формат : AVC
Формат/Информация : Advanced Video Codec
Профиль формата : [email protected]
Настройки формата : CABAC / 4 Ref Frames
Параметр CABAC формата : Да
Параметр RefFrames формата : 4 кадра
Идентификатор кодека : V_MPEG4/ISO/AVC
Продолжительность : 42 м. 35 с.
Битрейт : 5242 Кбит/сек
Ширина : 1920 пикселей
Высота : 1080 пикселей
Соотношение сторон : 16:9
Режим частоты кадров : Постоянный
Частота кадров : 23,976 (24000/1001) кадра/сек
Частота кадров в оригинале : 23,976 (23976/1000) кадра/сек
Цветовое пространство : YUV
Субдискретизация насыщенности : 4:2:0
Битовая глубина : 8 бит
Тип развёртки : Прогрессивная
Бит/(Пиксели*Кадры) : 0.105
Размер потока : 1,56 Гбайт (87%)
Библиотека кодирования : x264 core 112 r1834 a51816a
Настройки программы : cabac=1 / ref=4 / deblock=1:-3:-2 / analyse=0x3:0x113 / me=hex / subme=7 / psy=1 / psy_rd=1.00:0.00 / mixed_ref=1 / me_range=16 / chroma_me=1 / trellis=1 / 8x8dct=1 / cqm=0 / deadzone=21,11 / fast_pskip=1 / chroma_qp_offset=-2 / threads=12 / sliced_threads=0 / nr=0 / decimate=1 / interlaced=0 / constrained_intra=0 / bframes=5 / b_pyramid=2 / b_adapt=1 / b_bias=0 / direct=1 / weightb=1 / open_gop=0 / weightp=2 / keyint=250 / keyint_min=25 / scenecut=40 / intra_refresh=0 / rc_lookahead=40 / rc=2pass / mbtree=1 / bitrate=5242 / ratetol=1.0 / qcomp=0.60 / qpmin=0 / qpmax=51 / qpstep=4 / cplxblur=20.0 / qblur=0.5 / vbv_maxrate=10000 / vbv_bufsize=256000 / ip_ratio=1.40 / aq=1:1.00 / nal_hrd=none
Default : Да
Forced : Нет
Аудио #1
Идентификатор : 2
Формат : AC-3
Формат/Информация : Audio Coding 3
Идентификатор кодека : A_AC3
Продолжительность : 42 м. 34 с.
Вид битрейта : Постоянный
Битрейт : 384 Кбит/сек
Каналы : 2 канала
Расположение каналов : Front: L R
Частота : 48,0 КГц
Частота кадров : 31,250 кадров/сек (1536 SPF)
Битовая глубина : 16 бит
Метод сжатия : С потерями
Размер потока : 117 Мбайт (6%)
ServiceKind/String : Complete Main
Default : Да
Forced : Нет
Аудио #2
Идентификатор : 3
Формат : AC-3
Формат/Информация : Audio Coding 3
Идентификатор кодека : A_AC3
Продолжительность : 42 м. 35 с.
Вид битрейта : Постоянный
Битрейт : 384 Кбит/сек
Каналы : 2 канала
Расположение каналов : Front: L R
Частота : 48,0 КГц
Частота кадров : 31,250 кадров/сек (1536 SPF)
Битовая глубина : 16 бит
Метод сжатия : С потерями
Размер потока : 117 Мбайт (6%)
ServiceKind/String : Complete Main
Default : Нет
Forced : Нет
-Скриншоты:

Дополнительные скриншоты:



Смотреть онлайн


[trackeroc.org].29219.torrent 
Torrent: Registered   [ 2019-09-25 03:12 ]

Скачать торрент

97 KB

Status: checked
Completed: 4 times
Size: 19.17 GB
 

Admin (25-сен-19)
Similar torrent
Forum Topic Author Size
Зарубежные сериалы Аванпост / The Outpost (2019) WEBRip (сезон 2, серии 1-13 из 13) Lostfilm Admin 7.61 GB
Зарубежные сериалы Аванпост / The Outpost (2018) WEB-DLRip (сезон 1, серии 1-10 из 10) Jaskier Admin 4.92 GB

_________________
[Profile] [PM]
Display posts from previous:    
Reply to topic

The time now is: Today 01:15

All times are GMT + 4 Hours



You cannot post new topics in this forum
You cannot reply to topics in this forum
You cannot edit your posts in this forum
You cannot delete your posts in this forum
You cannot vote in polls in this forum
You cannot attach files in this forum
You can download files in this forum