Балканский рубеж (2019) CamRip [AD] скачать торрент

Reply to topic

DL-List and Torrent activity [Update пиров]
Size:  1.41 GB   |    Registered:  4 months 23 days   |    Completed:  0 times

Seeder not seen: 4 months 8 days

Leechers:  1  [  0 KB/s  ]   Show peers in full details
 
 
 
 
 
Author Message

BiOS ®

Longevity: 5 years 4 months

Posts: 2280

Location: East Siberia


Post 25-Apr-2019 00:24

[Quote]

Балканский рубеж
«Мир, за который стоит бороться»
- Производство: Россия, Сербия / Блесс-Фильм, Апгрейд Вижн, Archangel Studios
Жанр: Боевик, Драма
Режиссер: Андрей Волгин
Продюсер: Гоша Куценко, Вадим Быркин, Васил Шевц
Актеры: Антон Пампушный, Гоша Куценко, Милош Бикович, Милена Радулович, Гойко Митич, Равшана Куркова, Дмитрий Фрид, Александар Сречкович, Светлана Чуйкина, Миодраг Радонич
Описание:
Югославия. 1999 год. Российская спецгруппа получает приказ взять под контроль аэродром Слатина в Косово и удерживать его до прихода подкрепления. Но этот стратегический объект крайне важен албанскому полевому командиру и натовским генералам. Группа вынуждена принять неравный бой с террористами. К аэродрому устремляются российские миротворцы и силы НАТО. Мир вновь близок к большой войне. Но командиру спецгруппы Андрею Шаталову не до политики: в аэропорту среди заложников его любимая девушка Ясна…

Возраст: 16+ (зрителям, достигшим 16 лет)
Дата мировой премьеры: 21 марта 2019
Дата российской премьеры: 21 марта 2019, «Двадцатый Век Фокс СНГ»
Цифровой релиз: 2 мая 2019, «Планета информ»
Продолжительность: 02:21:56
Качество видео: CamRip
Перевод: Не требуется (русский)
Субтитры: Отсутствуют
Реклама: Присутствуют вставки голосовой и текстовой рекламы
Видео: Xvid, 720x304, ~1224 Kbps
Аудио: AC3, 2 ch, 192 Kbps

Mediainfo:

Общее
Формат : AVI
Формат/Информация : Audio Video Interleave
Размер файла : 1,41 Гбайт
Продолжительность : 2 ч. 21 м.
Общий поток : 1425 Кбит/сек
Программа кодирования : VirtualDubMod 1.5.10.2 (build 2540/release)
Библиотека кодирования : VirtualDub build 35576/release
Видео
Идентификатор : 0
Формат : MPEG-4 Visual
Профиль формата : Advanced [email protected]
Настройки формата : BVOP2
Параметр BVOP формата : 2
Параметр QPel формата : Нет
Параметр GMC формата : Без точки перехода
Параметр матрицы формата : Default (MPEG)
Идентификатор кодека : XVID
Идентификатор кодека/Подсказка : XviD
Продолжительность : 2 ч. 21 м.
Битрейт : 1224 Кбит/сек
Ширина : 720 пикселей
Высота : 304 пикселя
Соотношение сторон : 2,35:1
Частота кадров : 23,976 (24000/1001) кадра/сек
Цветовое пространство : YUV
Субдискретизация насыщенности : 4:2:0
Битовая глубина : 8 бит
Тип развёртки : Прогрессивная
Метод сжатия : С потерями
Бит/(Пиксели*Кадры) : 0.233
Размер потока : 1,21 Гбайт (86%)
Библиотека кодирования : XviD 1.2.1 (UTC 2008-12-04)
Аудио
Идентификатор : 1
Формат : AC-3
Формат/Информация : Audio Coding 3
Коммерческое название : Dolby Digital
Идентификатор кодека : 2000
Продолжительность : 2 ч. 21 м.
Вид битрейта : Постоянный
Битрейт : 192 Кбит/сек
Каналы : 2 канала
Channel layout : L R
Частота : 48,0 КГц
Частота кадров : 31,250 кадров/сек (1536 SPF)
Битовая глубина : 16 бит
Метод сжатия : С потерями
Размер потока : 195 Мбайт (13%)
Выравнивание : Разделение по промежуткам
Продолжительность промежутка : 42 мс. (1,00 видеокадр)
Время предзагрузки промежутка : 500 мс.
ServiceKind/String : Complete Main
-Скриншоты:


Смотреть онлайн


[trackeroc.org].28152.torrent 
Torrent: Registered   [ 2019-04-25 00:24 ]

Скачать торрент

15 KB

Status: checked
Completed: 41 times
Size: 1.41 GB
 

Admin (25-апр-19)
Similar torrent
Forum Topic Author Size
Action, экшены The Church in the Darkness (2019) [Ru/Multi] (1.0.8) License CODEX Admin 950 MB
Action, экшены Devil's Hunt (2019) [Ru/Multi] (1.0) License HOODLUM Admin 22.97 GB
Зомби игры, Survival, Horror Daymare: 1998 (2019) [Ru/Multi] (9731) Repack xatab Admin 15.74 GB
Strategy Rebel Cops (2019) (ENG+RUS) GOG Admin 1.41 GB
Песочницы, Sandbox Hardland [v1.0] (2019) (ENG) Admin 3.94 GB

_________________
[Profile] [PM]
Display posts from previous:    
Reply to topic

The time now is: Today 07:30

All times are GMT + 4 Hours



You cannot post new topics in this forum
You cannot reply to topics in this forum
You cannot edit your posts in this forum
You cannot delete your posts in this forum
You cannot vote in polls in this forum
You cannot attach files in this forum
You can download files in this forum