Благие знамения / Good Omens (2019) WEB-DL [H.264/1080p-LQ] (сезон 1, серии 1-6 из 6) Kerob скачать торрент

Reply to topic

DL-List and Torrent activity [Update пиров]
Size:  20.34 GB   |    Registered:  13 days   |    Completed:  0 times

Seeder not seen: 8 days

 
 
 
 
 
Author Message

BiOS ®

Longevity: 5 years 1 month

Posts: 2265

Location: East Siberia


Post 03-Jun-2019 13:51

[Quote]

Благие знамения / Good Omens
«The end is nigh»
- Производство: Великобритания, США / Amazon Studios
Жанр: фэнтези, комедия
Режиссер: Дуглас Маккиннон
Актеры: Майкл Шин, Дэвид Теннант, Фрэнсис МакДорманд, Шан Брук, Дэниэл Мейс, Сэм Тейлор Бак, Джон Хэмм, Адриа Архона, Пол Чахиди, Нед Деннехи и др.
Описание:
В центре сюжета ангел Азирафель и демон Кроули, которые объединяют усилия, чтобы предотвратить конец света, так как за долгие века успели привыкнуть к жизни на земле.

Дата мировой премьеры: 31.05.2019
Продолжительность: ~00:51:00 серия
Качество видео: WEB-DL
Перевод: Многоголосый любительский - Kerob
Субтитры: английские
Видео: AVC/H.264, 1920x1080 (16:9), ~7950 Kbps
Аудио 1: AC3, 2 ch, 384 Kbps — русский
Аудио 2: Е-AC3, 6 ch, 640 Kbps — английский

Mediainfo:

Общее
Формат : Matroska
Версия формата : Version 4
Размер файла : 3,21 Гбайт
Продолжительность : 51 м. 16 с.
Общий поток : 8974 Кбит/сек
Дата кодирования : UTC 2019-06-01 19:03:20
Программа кодирования : mkvmerge v34.0.0 ('Sight and Seen') 64-bit
Библиотека кодирования : libebml v1.3.7 + libmatroska v1.5.0
Видео
Идентификатор : 1
Формат : AVC
Формат/Информация : Advanced Video Codec
Профиль формата : High@L4
Настройки формата : CABAC / 4 Ref Frames
Параметр CABAC формата : Да
Параметр RefFrames формата : 4 кадра
Идентификатор кодека : V_MPEG4/ISO/AVC
Продолжительность : 51 м. 15 с.
Вид битрейта : Постоянный
Битрейт : 7950 Кбит/сек
Номинальный битрейт : 10000 Кбит/сек
Ширина : 1920 пикселей
Высота : 1080 пикселей
Соотношение сторон : 16:9
Режим частоты кадров : Постоянный
Частота кадров : 25,000 кадров/сек
Цветовое пространство : YUV
Субдискретизация насыщенности : 4:2:0
Битовая глубина : 8 бит
Тип развёртки : Прогрессивная
Бит/(Пиксели*Кадры) : 0.153
Размер потока : 2,85 Гбайт (89%)
Язык : English
Default : Да
Forced : Нет
Цветовой диапазон : Limited
Основные цвета : BT.709
Характеристики трансфера : BT.709
Коэффициенты матрицы : BT.709
Аудио #1
Идентификатор : 2
Формат : AC-3
Формат/Информация : Audio Coding 3
Коммерческое название : Dolby Digital
Идентификатор кодека : A_AC3
Продолжительность : 51 м. 16 с.
Вид битрейта : Постоянный
Битрейт : 384 Кбит/сек
Каналы : 2 канала
ChannelLayout : L R
Частота : 48,0 КГц
Частота кадров : 31,250 кадров/сек (1536 SPF)
Битовая глубина : 16 бит
Метод сжатия : С потерями
Размер потока : 141 Мбайт (4%)
Язык : Russian
ServiceKind/String : Complete Main
Default : Да
Forced : Нет
Аудио #2
Идентификатор : 3
Формат : E-AC-3
Формат/Информация : Enhanced AC-3
Коммерческое название : Dolby Digital Plus
Идентификатор кодека : A_EAC3
Продолжительность : 51 м. 15 с.
Вид битрейта : Постоянный
Битрейт : 640 Кбит/сек
Каналы : 6 каналов
ChannelLayout : L R C LFE Ls Rs
Частота : 48,0 КГц
Частота кадров : 31,250 кадров/сек (1536 SPF)
Метод сжатия : С потерями
Размер потока : 235 Мбайт (7%)
Язык : English
ServiceKind/String : Complete Main
Default : Нет
Forced : Нет
Текст
Идентификатор : 4
Формат : UTF-8
Идентификатор кодека : S_TEXT/UTF8
Идентификатор кодека/Информация : UTF-8 Plain Text
Продолжительность : 49 м. 6 с.
Битрейт : 87 бит/сек
ElementCount : 1020
Размер потока : 31,5 Кбайт (0%)
Заголовок : English
Язык : English
Default : Нет
Forced : Нет

Список серий:

01. In the Beginning
02. The Book
03. Hard Times
04. Saturday Morning Funtime
05. The Doomsday Option
06. The Very Last Day of the Rest of Their Lives
-Скриншоты:


Смотреть онлайн


[trackeroc.org].28468.torrent 
Torrent: Registered   [ 2019-06-03 13:51 ]

Скачать торрент

52 KB

Status: checked
Completed: 7 times
Size: 20.34 GB
 

Admin (03-июн-19)

_________________
[Profile] [PM]
Display posts from previous:    
Reply to topic

The time now is: Today 03:30

All times are GMT + 4 Hours



You cannot post new topics in this forum
You cannot reply to topics in this forum
You cannot edit your posts in this forum
You cannot delete your posts in this forum
You cannot vote in polls in this forum
You cannot attach files in this forum
You can download files in this forum