Болотная тварь / Swamp Thing (2019) WEB-DLRip [H.264/720p-LQ] (сезон 1, серии 1-3 из 10) SDI Media скачать торрент

Reply to topic

DL-List and Torrent activity [Update пиров]
Size:  3.66 GB   |    Registered:  34 minutes   |    Completed:  0 times

Seeder not seen: Never

 
 
 
 
 
Author Message

BiOS ®

Longevity: 5 years 2 months

Posts: 2262

Location: East Siberia


Post 06-Jun-2019 03:28

[Quote]

Болотная тварь / Swamp Thing
«Go green, or else»
- Производство: США / Atomic Monster, DC Universe
Жанр: ужасы, фантастика, фэнтези, боевик, драма, приключения
Режиссер: Лен Уайзман, Кэрол Бенкер, Тоа Фрейзер
Актеры: Кристал Рид, Энди Бин, Дерек Мирс, Хендерсон Вэйд, Дженнифер Билз, Вирджиния Мэдсен, Уилл Пэттон, Мария Стэн, Селена Андусе, Кевин Дюран
Описание:
Микробиолог Эбби Аркейн возвращается в родной город — здесь разбушевался смертельный вирус, который необходимо изучить и нейтрализовать. Она знакомится с коллегой Алеком Холландом, их совместная работа стремительно перерастает в романтические отношения, но на всем этом ставит точку несчастный случай на болоте, в результате которого Алек погибает. Убитая горем Эбби еще не знает, что ее ждет новая встреча с возлюбленным, который теперь превратился в человекообразное растение с супергеройскими способностями.
По комиксам DC.

Возраст: 18+ (зрителям, достигшим 18 лет. запрещено для детей)
Премьера (мир): 31 мая 2019 / (РФ): 1 июня 2019
Продолжительность: ~ 01:00:00 серия
Качество видео: WEB-DLRip
Перевод: Дублированный (SDI Media)
Субтитры: Русские (full), Английские (SDH)
Видео: AVC, 1280x720 (1.778), ~2990 Kbps
Аудио 1: AAC, 48 kHz, 2 ch, 160 Kbps - русский
Аудио 2: AAC, 48 kHz, 2 ch, 128 Kbps - english

Mediainfo:

Format                      : Matroska
Format version : Version 4 / Version 2
File size : 1.37 GiB
Duration : 59 min 43 s
Overall bit rate : 3 279 kb/s
Movie name : Swamp Thing 2019 S01E01 - ReJliz TeamHD by BenderBEST
Encoded date : UTC 2019-06-09 10:43:12
Writing application : mkvmerge v8.3.0 ('Over the Horizon') 64bit
Writing library : libebml v1.3.1 + libmatroska v1.4.2
Video
ID : 1
Format : AVC
Format/Info : Advanced Video Codec
Format profile : Baseline@L3.1
Format settings, CABAC : No
Format settings, RefFrames : 3 frames
Format settings, GOP : M=1, N=48
Codec ID : V_MPEG4/ISO/AVC
Duration : 59 min 43 s
Bit rate : 2 988 kb/s
Width : 1 280 pixels
Height : 720 pixels
Display aspect ratio : 16:9
Frame rate mode : Constant
Frame rate : 23.976 (24000/1001) FPS
Color space : YUV
Chroma subsampling : 4:2:0
Bit depth : 8 bits
Scan type : Progressive
Bits/(Pixel*Frame) : 0.135
Stream size : 1.25 GiB (91%)
Writing library : Zencoder Video Encoding System
Language : English
Default : Yes
Forced : Yes
Color range : Limited
Color primaries : BT.709
Transfer characteristics : BT.709
Matrix coefficients : BT.709
Audio #1
ID : 2
Format : AAC
Format/Info : Advanced Audio Codec
Format profile : LC
Codec ID : A_AAC
Duration : 59 min 43 s
Bit rate : 160 kb/s
Channel(s) : 2 channels
Channel positions : Front: L R
Sampling rate : 48.0 kHz
Frame rate : 46.875 FPS (1024 SPF)
Compression mode : Lossy
Delay relative to video : 9 ms
Stream size : 68.3 MiB (5%)
Title : AAC 2.0 @ 160 kbps - DUB, SDI Media
Language : Russian
Default : Yes
Forced : Yes
Audio #2
ID : 3
Format : AAC
Format/Info : Advanced Audio Codec
Format profile : LC
Codec ID : A_AAC
Duration : 59 min 43 s
Bit rate : 128 kb/s
Channel(s) : 2 channels
Channel positions : Front: L R
Sampling rate : 48.0 kHz
Frame rate : 46.875 FPS (1024 SPF)
Compression mode : Lossy
Stream size : 54.6 MiB (4%)
Title : AAC 2.0 @ 128 kbps
Language : English
Default : No
Forced : No
Text #1
ID : 4
Format : UTF-8
Codec ID : S_TEXT/UTF8
Codec ID/Info : UTF-8 Plain Text
Duration : 55 min 56 s
Bit rate : 64 b/s
Count of elements : 487
Stream size : 26.4 KiB (0%)
Title : Full
Language : Russian
Default : No
Forced : No
Text #2
ID : 5
Format : UTF-8
Codec ID : S_TEXT/UTF8
Codec ID/Info : UTF-8 Plain Text
Duration : 58 min 11 s
Bit rate : 53 b/s
Count of elements : 845
Stream size : 22.7 KiB (0%)
Title : SDH
Language : English
Default : No
Forced : No
-Скриншоты:


Смотреть онлайн


[trackeroc.org].28483.torrent 
Torrent: Registered   [ Today 12:42 ]

Скачать торрент

20 KB

Status: checked
Completed: 13 times
Size: 3.66 GB
 

Admin (06-июн-19)

_________________


Last edited by BiOS on Today 12:42; edited 5 times in total
[Profile] [PM]

BiOS ®

Longevity: 5 years 2 months

Posts: 2262

Location: East Siberia


Post 13-Jun-2019 03:30 (after 7 days)

[Quote]

Проект закрыли, из 13 серий покажут только 10 и на этом всё. Жаль, что продолжения не будет :( 

_________________
[Profile] [PM]
Display posts from previous:    
Reply to topic

The time now is: Today 13:16

All times are GMT + 4 Hours



You cannot post new topics in this forum
You cannot reply to topics in this forum
You cannot edit your posts in this forum
You cannot delete your posts in this forum
You cannot vote in polls in this forum
You cannot attach files in this forum
You can download files in this forum