Экипаж (2016) DVD5 скачать торрент

Reply to topic

DL-List and Torrent activity [Update пиров]
Size:  4.37 GB   |    Registered:  3 years 2 months   |    Completed:  10 times
Seeders:  21  [  0 KB/s  ]   Leechers:  2  [  0 KB/s  ]   Show peers in full details
 
 
 
 
Author Message

BiOS ®

Longevity: 5 years 4 months

Posts: 2280

Location: East Siberia


Post 21-Jun-2016 02:43

[Quote]

Экипаж - Производство: Россия / Студия Тритэ
Жанр: Драма, приключения, триллер
Режиссер: Николай Лебедев
Продюсеры: Леонид Верещагин, Антон Златопольский, Никита Михалков
Актеры: Данила Козловский, Владимир Машков, Агне Грудите, Сергей Кемпо, Катерина Шпица, Сергей Шакуров, Сергей Газаров, Елена Яковлева, Алёна Бабенко, Сергей Романович
Описание:
История талантливого молодого летчика Алексея Гущина. Он не признает авторитетов, предпочитая поступать в соответствии с личным кодексом чести. За невыполнение абсурдного приказа его выгоняют из военной авиации, и только чудом он получает шанс летать на гражданских самолетах.
Гущин начинает свою летную жизнь сначала. Его наставник — командир воздушного судна — суровый и принципиальный Леонид Зинченко. Его коллега — второй пилот, неприступная красавица Александра. Отношения складываются непросто. Но на грани жизни и смерти, когда земля уходит из-под ног, вокруг — огонь и пепел и только в небе есть спасение, Гущин показывает все, на что он способен. Только вместе экипаж сможет совершить подвиг и спасти сотни жизней.
Возраст: 6+ (зрителям, достигшим 6 лет)
Дата мировой премьеры: 22 апреля 2016
Дата российской премьеры: 21 апреля 2016, «Централ Партнершип»
Продолжительность: 02:11:35
Качество видео: DVD5
Перевод: Не требуется
Видео: MPEG-2, [email protected] (PAL 16:9), ~4182 Kbps
Аудио: AC3 5.1, 448 Kbps

MediaInfo:

Код:
Полное имя : C:\Экипаж (2016) DVD5\VIDEO_TS\VTS_02_1.VOB
Формат : MPEG-PS
Размер файла : 1024 Мбайт
Продолжительность : 30 м.
Режим общего битрейта : Переменный
Общий поток : 4724 Кбит/сек
Видео
Идентификатор : 224 (0xE0)
Формат : MPEG Video
Версия формата : Version 2
Профиль формата : [email protected]
Параметр BVOP формата : Да
Параметр матрицы формата : Выборочная
Параметр GOP формата : M=3, N=12
Продолжительность : 30 м.
Вид битрейта : Переменный
Битрейт : 4182 Кбит/сек
Максимальный битрейт : 8979 Кбит/сек
Ширина : 720 пикселей
Высота : 576 пикселей
Соотношение сторон : 16:9
Частота кадров : 25,000 кадров/сек
Стандарт вещания : PAL
Цветовое пространство : YUV
Субдискретизация насыщенности : 4:2:0
Битовая глубина : 8 бит
Тип развёртки : Прогрессивная
Порядок развёртки : Нижнее поле первое
Метод сжатия : С потерями
Бит/(Пиксели*Кадры) : 0.403
Временной код первого кадра : 00:00:00:00
Оригинал временного кода : Group of pictures header
Размер потока : 907 Мбайт (89%)
Аудио
Идентификатор : 189 (0xBD)-128 (0x80)
Формат : AC-3
Формат/Информация : Audio Coding 3
Расширение режима : CM (complete main)
Параметр Endianness формата : Big
Режим смешивания : DVD-Video
Продолжительность : 30 м.
Вид битрейта : Постоянный
Битрейт : 448 Кбит/сек
Каналы : 6 каналов
Расположение каналов : Front: L C R, Side: L R, LFE
Частота : 48,0 КГц
Частота кадров : 31,250 кадров/сек (1536 spf)
Метод сжатия : С потерями
Размер потока : 97,1 Мбайт (9%)
-Скриншоты:


Смотреть онлайн


[trackeroc.ru].13322.torrent 
Torrent: Registered   [ 2016-06-21 02:43 ]

Скачать торрент

23 KB

Status: checked
Completed: 171 times
Size: 4.37 GB
 

Admin (21-июн-16)
Similar torrent
Forum Topic Author Size
Автосимуляторы City Car Driving (1.5.8) (2016) [RUS] [ENG][MULTi12] Repack by xatab max+100600 1.63 GB
Strategy, Стратегии Imagine Earth [Alpha 55.2] (2016) (RUS/ENG) [Early Access] Admin 643 MB
Action No Man's Sky (2016) [Ru/Multi] (2.11/dlc) License GOG max+100600 8.84 GB
Песочницы, Sandbox From the Depths (v2.4.9.27) [Early Access] (2016) (ENG) Repack DD Admin 447 MB
Песочницы, Sandbox KINGDOMS v0.321 [Early Access] (2016) [ENG] Repack DD Admin 1.31 GB

_________________
[Profile] [PM]
Display posts from previous:    
Reply to topic

The time now is: Today 06:45

All times are GMT + 4 Hours



You cannot post new topics in this forum
You cannot reply to topics in this forum
You cannot edit your posts in this forum
You cannot delete your posts in this forum
You cannot vote in polls in this forum
You cannot attach files in this forum
You can download files in this forum