Эпидемия (2019) WEB-DL [H.264/1080p-LQ] (сезон 1, серии 1-2 из 8) скачать торрент

Reply to topic

DL-List and Torrent activity [Update пиров]
Size:  3.68 GB   |    Registered:  19 days   |    Completed:  0 times
Seeders:  7  [  77 KB/s  ]   Show peers in full details
 
 
 
 
Author Message

BiOS ®

Longevity: 5 years 7 months

Posts: 2374

Location: Earth


Post 22-Nov-2019 09:49

[Quote]

Эпидемия - Производство: Россия / «ТНТ-PREMIER»
Жанр: драма, фантастика, триллер
Режиссер: Павел Костомаров
Актеры: Кирилл Кяро, Виктория Исакова, Александр Робак, Марьяна Спивак, Юрий Кузнецов, Савелий Кудряшов, Аля Никулина, Наталья Земцова, Екатерина Сапрыкина, Вера Гурьева и др.
Описание:
Новый неизвестный вирус превращает Москву в город мёртвых. Электричества нет, деньги потеряли свою ценность, те, кто ещё не заражён, отчаянно сражаются за еду и бензин. Главный герой Сергей, его любимая и её сын-аутист живут за городом, где пока ещё безопасно. Но он не может бросить в беде бывшую жену с сыном, хоть она и ненавидит его. Сергей едет в Москву и чудом вывозит из умирающей столицы женщину и ребёнка. В пути к ним присоединяются также отец героя и довольно наглые соседи с младенцем. Люди, которые в другой ситуации никогда не оказались бы под одной крышей, вынуждены забыть прежние обиды и отправиться в полное смертельных опасностей путешествие на крайний Север, к уединенному охотничьему домику, расположенному на необитаемом острове посреди озера.

Дата российской премьеры: 14 ноября 2019
Продолжительность: ~00:55:00 серия
Качество видео: WEB-DL
Видео: AVC/H.264, 1920x1080 (16:9), ~5000 Kbps
Аудио: AC3, 2 ch, 192 Kbps - без цензуры
Аудио: AC3, 2 ch, 192 Kbps - с цензурой

MediaInfo:

Общее
Уникальный идентификатор : 293795605609805550643994243831044816884 (0xDD06F9B642CAB0721126FFEF4A78BFF4)
Полное имя : Epidemia.e01.mkv
Формат : Matroska
Версия формата : Version 4
Размер файла : 2,07 Гбайт
Продолжительность : 55 м. 44 с.
Режим общего битрейта : Постоянный
Общий поток : 5314 Кбит/сек
Название фильма : Epidemia.e01
Дата кодирования : UTC 2019-11-21 09:44:24
Программа кодирования : mkvmerge v40.0.0 ('Old Town Road + Pony') 32-bit
Библиотека кодирования : libebml v1.3.9 + libmatroska v1.5.2
Видео
Идентификатор : 1
Формат : AVC
Формат/Информация : Advanced Video Codec
Профиль формата : [email protected]
Настройки формата : 4 Ref Frames
Параметр CABAC формата : Нет
Параметр RefFrames формата : 4 кадра
Идентификатор кодека : V_MPEG4/ISO/AVC
Продолжительность : 55 м. 44 с.
Вид битрейта : Постоянный
Битрейт : 5000 Кбит/сек
Ширина : 1920 пикселей
Высота : 1080 пикселей
Соотношение сторон : 16:9
Режим частоты кадров : Постоянный
Частота кадров : 25,000 кадров/сек
Стандарт вещания : PAL
Цветовое пространство : YUV
Субдискретизация насыщенности : 4:2:0
Битовая глубина : 8 бит
Тип развёртки : Прогрессивная
Бит/(Пиксели*Кадры) : 0.096
Размер потока : 1,92 Гбайт (93%)
Default : Да
Forced : Нет
Цветовой диапазон : Limited
Основные цвета : BT.709
Характеристики трансфера : BT.709
Коэффициенты матрицы : BT.709
Аудио #1
Идентификатор : 2
Формат : AC-3
Формат/Информация : Audio Coding 3
Коммерческое название : Dolby Digital
Идентификатор кодека : A_AC3
Продолжительность : 55 м. 44 с.
Вид битрейта : Постоянный
Битрейт : 192 Кбит/сек
Каналы : 2 канала
ChannelLayout : L R
Частота : 48,0 КГц
Частота кадров : 31,250 кадров/сек (1536 SPF)
Метод сжатия : С потерями
Размер потока : 76,5 Мбайт (4%)
Язык : Russian
ServiceKind/String : Complete Main
Default : Да
Forced : Нет
Аудио #2
Идентификатор : 3
Формат : AC-3
Формат/Информация : Audio Coding 3
Коммерческое название : Dolby Digital
Идентификатор кодека : A_AC3
Продолжительность : 55 м. 44 с.
Вид битрейта : Постоянный
Битрейт : 192 Кбит/сек
Каналы : 2 канала
ChannelLayout : L R
Частота : 48,0 КГц
Частота кадров : 31,250 кадров/сек (1536 SPF)
Метод сжатия : С потерями
Размер потока : 76,5 Мбайт (4%)
Заголовок : С цензурой
Язык : Russian
ServiceKind/String : Complete Main
Default : Нет
Forced : Нет

Дата выхода серий:

-Скриншоты:


Смотреть онлайн


[trackeroc.org].29534.torrent 
Torrent: Registered   [ 2019-11-22 09:49 ]

Скачать торрент

19 KB

Status: T temporary
Completed: 8 times
Size: 3.68 GB
 

Admin (22-ноя-19)
Similar torrent
Forum Topic Author Size
Зарубежные Мультсериалы Принц драконов / The Dragon Prince (2018-2019) WEB-DLRip (сезон 1-3, серии 1-27 из 27) SDI Media BiOS 13.35 GB
Российские сериалы Поселенцы (2019) WEB-DLRip (сезон 1, серии 1-16 из 16) BiOS 9.69 GB
Отечественные Мультсериалы Ми-ми-мишки (2015-2019) WEB-DLRip [H.264/720p-LQ] (сезон 1-7, серии 1-144, 146-161 из 182) + Бонус BiOS 10.12 GB
Песочницы, Sandbox Oxygen Not Included v383949 [Recreation Pack] (2019) (RUS/ENG) Admin 539 MB
Зарубежные сериалы Видеть / See (2019) WEBRip (сезон 1, серии 1-8 из 8) HDRezka Studio BiOS 13.2 GB

_________________
[Profile] [PM]
Display posts from previous:    
Reply to topic

The time now is: Today 01:35

All times are GMT + 4 Hours



You cannot post new topics in this forum
You cannot reply to topics in this forum
You cannot edit your posts in this forum
You cannot delete your posts in this forum
You cannot vote in polls in this forum
You cannot attach files in this forum
You can download files in this forum