Голоса с того света / Morto Nao Fala (2018) WEB-DL [H.264/1080p] скачать торрент

Reply to topic

DL-List and Torrent activity [Update пиров]
Size:  3.8 GB   |    Registered:  29 days   |    Completed:  0 times

Seeder not seen: Never

Leechers:  1  [  3 MB/s  ]   Show peers in full details
 
 
 
 
 
Author Message

BiOS ®

Longevity: 5 years 5 months

Posts: 2336

Location: East Siberia


Post 16-Sep-2019 05:22

[Quote]

Голоса с того света / Morto Nao Fala- Производство: Бразилия, Canal Brasil, Casa de Cinema de Porto Alegre, Globo Filmes
Жанр: ужасы, триллер, мистика
Режиссер: Деннисон Рамалью
Актеры: Даниэль де Оливейра, Фабиула Нассименту, Бьянка Компрату, Маркос Клигман, Анналара Пратес, Марку Рикка
Описание:
Истенио работает по ночам в морге большого криминального города, поэтому постоянно видит тела жертв бандитских разборок в самых разных невообразимых состояниях. Другой бы на его месте отчаялся, но только не Истенио — мёртвые разговаривают с ним. В прямом смысле. У мужчины оккультный дар с рождения, который он может использовать себе во благо — мертвецы доверяют ему свои секреты. Но однажды Истенио узнает нечто ужасное о своих близких.

Возраст: 18+ (зрителям, достигшим 18 лет. запрещено для детей)
Рейтинг MPAA: NC-17 (лицам до 17 лет просмотр запрещен)
Дата мировой премьеры: 17 июля 2018
Дата российской премьеры: 15 августа 2019, «Престиж Кино»
Продолжительность: 01:50:18
Качество видео: WEB-DL 1080р
Перевод: Дублированный (iTunes)
Субтитры: Oтсутствуют
Видео: AVC/H.264, 1920х806, ~4455 Kbps
Аудио: AC3, 6 ch, 384 Kbps

MediaInfo:

Уникальный идентификатор                 : 180220165102376077786277527980294677277 (0x879524294ECF39BD92F7B37257DA231D)
Полное имя : Golos.s.togo.sveta.2018.WEB-DL.1080p.mkv
Формат : Matroska
Версия формата : Version 4
Размер файла : 3,80 Гбайт
Продолжительность : 1 ч. 50 м.
Общий поток : 4937 Кбит/сек
Название фильма : GOLOSA_S_TOGO_SVETA_2018
Дата кодирования : UTC 2019-09-14 18:25:48
Программа кодирования : mkvmerge v6.9.1 ('Blue Panther') 32bit built on Apr 18 2014 18:15:44
Библиотека кодирования : libebml v1.3.0 + libmatroska v1.4.1
Обложка : Yes
Attachments : cover.png
Видео
Идентификатор : 1
Формат : AVC
Формат/Информация : Advanced Video Codec
Профиль формата : [email protected]
Настройки формата : CABAC / 5 Ref Frames
Параметр CABAC формата : Да
Параметр RefFrames формата : 5 кадров
Идентификатор кодека : V_MPEG4/ISO/AVC
Продолжительность : 1 ч. 50 м.
Битрейт : 4455 Кбит/сек
Ширина : 1920 пикселей
Высота : 806 пикселей
Соотношение сторон : 2,40:1
Режим частоты кадров : Постоянный
Частота кадров : 24,000 кадра/сек
Цветовое пространство : YUV
Субдискретизация насыщенности : 4:2:0
Битовая глубина : 8 бит
Тип развёртки : Прогрессивная
Бит/(Пиксели*Кадры) : 0.120
Размер потока : 3,43 Гбайт (90%)
Заголовок : GOLOSA_S_TOGO_SVETA_2018_WEB-DL_1080p-BLUEBIRD
Язык : English
Default : Да
Forced : Нет
Цветовой диапазон : Limited
Основные цвета : BT.709
Характеристики трансфера : BT.709
Коэффициенты матрицы : BT.709
Аудио
Идентификатор : 2
Формат : AC-3
Формат/Информация : Audio Coding 3
Коммерческое название : Dolby Digital
Идентификатор кодека : A_AC3
Продолжительность : 1 ч. 50 м.
Вид битрейта : Постоянный
Битрейт : 384 Кбит/сек
Каналы : 6 каналов
ChannelLayout : L R C LFE Ls Rs
Частота : 48,0 КГц
Частота кадров : 31,250 кадров/сек (1536 SPF)
Битовая глубина : 16 бит
Метод сжатия : С потерями
Размер потока : 303 Мбайт (8%)
Заголовок : [DUB] DD 5.1 @ 384 kbps (iTunes)
Язык : Russian
ServiceKind/String : Complete Main
Default : Да
Forced : Нет
-Скриншоты:


Смотреть онлайн


[trackeroc.org].29130.torrent 
Torrent: Registered   [ 2019-09-16 05:22 ]

Скачать торрент

20 KB

Status: checked
Completed: 13 times
Size: 3.8 GB
 

Admin (16-сен-19)
Similar torrent
Forum Topic Author Size
Российские Голоса большой страны (2016) WEB-DLRip Admin 1.46 GB
Комедии Жених с того света (1958) DVBRip BiOS 1.57 GB

_________________
[Profile] [PM]
Display posts from previous:    
Reply to topic

The time now is: Today 12:24

All times are GMT + 4 Hours



You cannot post new topics in this forum
You cannot reply to topics in this forum
You cannot edit your posts in this forum
You cannot delete your posts in this forum
You cannot vote in polls in this forum
You cannot attach files in this forum
You can download files in this forum