Горячая зона / Зона заражения / The Hot Zone (2019) WEB-DLRip (сезон 1, серии 1-6 из 6) AMS [AD] скачать торрент

Reply to topic

DL-List and Torrent activity [Update пиров]
Size:  5.58 GB   |    Registered:  12 days   |    Completed:  0 times

Seeder not seen: Never

 
 
 
 
 
Author Message

BiOS ®

Longevity: 5 years 2 months

Posts: 2261

Location: East Siberia


Post 07-Jun-2019 23:25

[Quote]

Горячая зона / Зона заражения / The Hot Zone
«In 1989, Ebola Landed on U.S. Soil. They Risked Everything to Contain It»
- Производство: США
Жанр: Фантастика, триллер, драма
Режиссер: Майкл Аппендаль
Актеры: Лиам Каннингэм, Джеймс Д’Арси, Ноа Эммерих, Тофер Грейс, Пол Джеймс, Марк Келли, Роберт Шон Леонард, Джулианна Маргулис, Ленни Арройо-Платт, Ник Сирси и др.
Описание:
В 1989 году вирус Эбола обнаружили на территории США, который попал туда вместе с привезенными из Африки обезьянами. В дело вступает героческая ученая армии США, которая ставит под угрозу свою жизнь, спасая человечество. Ни больше ни меньше.
National Geographic собрал звёздный состав для этого сериала — Джулианна Маргулис, Ноа Эммерих и другие.

Продолжительность: ~00:45:00 серия
Качество видео: WEB-DLRip
Перевод: Многоголосый закадровый, профессиональный - AMS (Adiós Muchachos Studio)
Реклама: присутствуют аудио вставки рекламы
Видео: XviD, 720x368 (1.957:1), ~2100 Kbps
Аудио #1: AC3, 48,0 kHz, 6 ch, 384 Kbps - русский, многоголосый закадровый
Аудио #2: AC3, 48,0 kHz, 6 ch, 384 Kbps - английский

Mediainfo:

General
Format : AVI
Format/Info : Audio Video Interleave
File size : 954 MiB
Duration : 46mn 12s
Overall bit rate : 2 885 Kbps
Video
ID : 0
Format : MPEG-4 Visual
Format profile : Advanced Simple@L5
Format settings, BVOP : 2
Format settings, QPel : No
Format settings, GMC : No warppoints
Format settings, Matrix : Default (MPEG)
Codec ID : XVID
Codec ID/Hint : XviD
Duration : 46mn 12s
Bit rate : 2 099 Kbps
Width : 720 pixels
Height : 368 pixels
Display aspect ratio : 1.957
Frame rate : 23.976 (24000/1001) fps
Color space : YUV
Chroma subsampling : 4:2:0
Bit depth : 8 bits
Scan type : Progressive
Compression mode : Lossy
Bits/(Pixel*Frame) : 0.330
Stream size : 694 MiB (73%)
Writing library : XviD 67
Audio #1
ID : 1
Format : AC-3
Format/Info : Audio Coding 3
Mode extension : CM (complete main)
Format settings, Endianness : Big
Codec ID : 2000
Duration : 46mn 12s
Bit rate mode : Constant
Bit rate : 384 Kbps
Channel(s) : 6 channels
Channel positions : Front: L C R, Side: L R, LFE
Sampling rate : 48.0 KHz
Frame rate : 31.250 fps (1536 spf)
Compression mode : Lossy
Stream size : 127 MiB (13%)
Alignment : Aligned on interleaves
Interleave, duration : 32 ms (0.77 video frame)
Audio #2
ID : 2
Format : AC-3
Format/Info : Audio Coding 3
Mode extension : CM (complete main)
Format settings, Endianness : Big
Codec ID : 2000
Duration : 46mn 12s
Bit rate mode : Constant
Bit rate : 384 Kbps
Channel(s) : 6 channels
Channel positions : Front: L C R, Side: L R, LFE
Sampling rate : 48.0 KHz
Frame rate : 31.250 fps (1536 spf)
Bit depth : 16 bits
Compression mode : Lossy
Stream size : 127 MiB (13%)
Alignment : Aligned on interleaves
Interleave, duration : 32 ms (0.77 video frame)
-Скриншоты:


Смотреть онлайн


[trackeroc.org].28500.torrent 
Torrent: Registered   [ 2019-06-07 23:25 ]

Скачать торрент

57 KB

Status: checked
Completed: 0 times
Size: 5.58 GB
 

Admin (07-июн-19)
Similar torrent
Forum Topic Author Size
Зарубежные сериалы Сумеречная зона / The Twilight Zone (2019) (сезон 1, серия 1-10 из 10) Admin 5.04 GB
Зарубежные сериалы Сумеречная Зона / The Twilight Zone (2002-2003) DVDRip [H.264] (Сезон 1, серии 01-44 из 44) ТВ3 Angel 12.64 GB
Российские сериалы Чернобыль. Зона отчуждения (2017) WEBRip [720p] (сезон 2, серии 1-8 из 8) BiOS 8.99 GB
Российские сериалы Чернобыль. Зона отчуждения (2014) WEB-DLRip [720p] (Сезон 1, Серии 1-8 из 8) BiOS 10.99 GB

_________________
[Profile] [PM]
Display posts from previous:    
Reply to topic

The time now is: Today 12:48

All times are GMT + 4 Hours



You cannot post new topics in this forum
You cannot reply to topics in this forum
You cannot edit your posts in this forum
You cannot delete your posts in this forum
You cannot vote in polls in this forum
You cannot attach files in this forum
You can download files in this forum