Харли Квинн / Harley Quinn (2019) UHD WEB-DL [H.265/2160p] [4K, HDR, 8-bit] (сезон 1, серии 1-13 из 13) The Kitchen Russia, Good People скачать торрент

Reply to topic

DL-List and Torrent activity [Update пиров]
Size:  23.67 GB   |    Registered:  1 month 9 days   |    Completed:  0 times
Seeders:  3  [  0 KB/s  ]   Show peers in full details
 
 
 
 
Author Message

BiOS ®

Longevity: 5 years 11 months

Posts: 2426

Location: Earth


Post 23-Feb-2020 05:48

[Quote]

Харли Квинн / Harley Quinn «Готэм, встречай Королеву!»- Производство: США, DC Entertainment, Ehsugadee, Warner Bros. Animation и др.
Жанр: Мультсериал для взрослых, фантастика, фэнтези, боевик, комедия, криминал, детектив
Режиссер: Сесилия Аранович, Мэтт Гарофало, Фрэнк Марино
Описание:
Харли Квинн разорвала отношения с Джокером и теперь пытается самостоятельно стать королевой преступного мира Готэма

Возраст: 18+ (зрителям, достигшим 18 лет. запрещено для детей)
Релиз от: [email protected]
Продолжительность: ~00:23:00 серия
Качество видео: WEB-DL
Перевод: Дублированный (The Kitchen Russia), Многоголосый профессиональный (Good People - ненормативная лексика)
Субтитры: Русские, английские
Примечание: Без рекламы
Видео: HEVC/H.265, 3840x2160, ~10,3 Mbps
Аудио #1: AC3, 2 ch, 192 kbps, - DUB, The Kitchen Russia по заказу КиноПоиск
Аудио #2: AC3, 2 ch, 192 kbps, - MVO, Good People по заказу КиноПоиск
Аудио #2: AC3, 6 ch, 640 kbps, - Английский

Список серий:

01 Til Death Do Us Part
02 A High Bar
03 So You Need A Crew?
04 Finding Mr. Right
05 Being Harley Quinn
06 You're a Damn Good Cop, Jim Gordon
07 The Line
08 L.O.D.R.S.V.P
09 A Seat at the Table
10 Bensonhurst
11 Harley Quinn Highway
12 Devil's Snare
13 The Final Joke

MediaInfo:

Общее
Уникальный идентификатор : 115358018141124937801034966624418645893 (0x56C92569D84F0145A75D4E9A86FBC785)
Полное имя : Quinn.S01.2160p.WEB-DL.2xRus.Eng.EniaHD\Harley.Quinn.S01E01.Til.Death.Do.Us.Part.2160p.WEB-DL.2xRus.Eng.EniaHD.mkv
Формат : Matroska
Версия формата : Version 4
Размер файла : 1,83 Гбайт
Продолжительность : 22 м. 55 с.
Общий поток : 11,4 Мбит/сек
Дата кодирования : UTC 2020-01-06 19:28:10
Программа кодирования : mkvmerge v42.0.0 ('Overtime') 64-bit
Библиотека кодирования : libebml v1.3.10 + libmatroska v1.5.2
Attachments : poster.harley.quinn.jpg
Видео
Идентификатор : 1
Формат : HEVC
Формат/Информация : High Efficiency Video Coding
Профиль формата : [email protected]@Main
Идентификатор кодека : V_MPEGH/ISO/HEVC
Продолжительность : 22 м. 55 с.
Битрейт : 10,3 Мбит/сек
Ширина : 3840 пикселей
Высота : 2160 пикселей
Соотношение сторон : 16:9
Режим частоты кадров : Постоянный
Частота кадров : 23,976 (24000/1001) кадра/сек
Цветовое пространство : YUV
Субдискретизация насыщенности : 4:2:0
Битовая глубина : 8 бит
Бит/(Пиксели*Кадры) : 0.052
Размер потока : 1,66 Гбайт (91%)
Язык : English
Default : Да
Forced : Нет
Цветовой диапазон : Limited
Основные цвета : BT.709
Характеристики трансфера : BT.709
Коэффициенты матрицы : BT.709
Аудио #1
Идентификатор : 2
Формат : AC-3
Формат/Информация : Audio Coding 3
Коммерческое название : Dolby Digital
Идентификатор кодека : A_AC3
Продолжительность : 22 м. 55 с.
Вид битрейта : Постоянный
Битрейт : 192 Кбит/сек
Каналы : 2 канала
ChannelLayout : L R
Частота : 48,0 КГц
Частота кадров : 31,250 кадров/сек (1536 SPF)
Метод сжатия : С потерями
Размер потока : 31,5 Мбайт (2%)
Заголовок : AC3 2.0 @ 192 kbps - DUB, The Kitchen Russia
Язык : Russian
ServiceKind/String : Complete Main
Default : Да
Forced : Нет
Аудио #2
Идентификатор : 3
Формат : AC-3
Формат/Информация : Audio Coding 3
Коммерческое название : Dolby Digital
Идентификатор кодека : A_AC3
Продолжительность : 22 м. 55 с.
Вид битрейта : Постоянный
Битрейт : 192 Кбит/сек
Каналы : 2 канала
ChannelLayout : L R
Частота : 48,0 КГц
Частота кадров : 31,250 кадров/сек (1536 SPF)
Метод сжатия : С потерями
Размер потока : 31,5 Мбайт (2%)
Заголовок : AC3 2.0 @ 192 kbps - MVO, Good People
Язык : Russian
ServiceKind/String : Complete Main
Default : Нет
Forced : Нет
Аудио #3
Идентификатор : 4
Формат : AC-3
Формат/Информация : Audio Coding 3
Коммерческое название : Dolby Digital
Идентификатор кодека : A_AC3
Продолжительность : 22 м. 55 с.
Вид битрейта : Постоянный
Битрейт : 640 Кбит/сек
Каналы : 6 каналов
ChannelLayout : L R C LFE Ls Rs
Частота : 48,0 КГц
Частота кадров : 31,250 кадров/сек (1536 SPF)
Метод сжатия : С потерями
Размер потока : 105 Мбайт (6%)
Заголовок : AC3 5.1 @ 640 kbps - Original
Язык : English
ServiceKind/String : Complete Main
Default : Нет
Forced : Нет
Текст #1
Идентификатор : 5
Формат : UTF-8
Идентификатор кодека : S_TEXT/UTF8
Идентификатор кодека/Информация : UTF-8 Plain Text
Продолжительность : 21 м. 48 с.
Битрейт : 169 бит/сек
ElementCount : 387
Размер потока : 27,0 Кбайт (0%)
Заголовок : Full
Язык : Russian
Default : Нет
Forced : Нет
Текст #2
Идентификатор : 6
Формат : UTF-8
Идентификатор кодека : S_TEXT/UTF8
Идентификатор кодека/Информация : UTF-8 Plain Text
Продолжительность : 22 м. 1 с.
Битрейт : 113 бит/сек
ElementCount : 535
Размер потока : 18,2 Кбайт (0%)
Заголовок : Full SDH
Язык : English
Default : Нет
Forced : Нет
-Скриншоты:


Смотреть онлайн


[trackeroc.org].30000.torrent 
 SILVER TORRENT! DOWNLOAD TRAFFIC PARTIALLY CONSIDERED! 
Torrent: Registered   [ 2020-02-24 08:48 ]

Скачать торрент

61 KB

Status: checked
Completed: 19 times
Size: 23.67 GB
 

Admin (23-фев-20)
Similar torrent
Forum Topic Author Size
Боевики Хищные птицы: Потрясающая история Харли Квинн / Birds of Prey: And the Fantabulous Emancipation of One Harley Quinn (2020) Admin 1.46 GB
Зарубежные Мультсериалы Харли Квинн / Harley Quinn (2019) WEB-DL [H.264/720p-LQ] (сезон 1, серии 1-13 из 13) NewStation BiOS 8.97 GB

_________________
[Profile] [PM]
Display posts from previous:    
Reply to topic

The time now is: Today 01:13

All times are GMT + 4 Hours



You cannot post new topics in this forum
You cannot reply to topics in this forum
You cannot edit your posts in this forum
You cannot delete your posts in this forum
You cannot vote in polls in this forum
You cannot attach files in this forum
You can download files in this forum