Информатор / Inside Man: Most Wanted (2019) HDRip [H.265] [10-bit] [PR] скачать торрент

Reply to topic

DL-List and Torrent activity [Update пиров]
Size:  1.71 GB   |    Registered:  27 days   |    Completed:  0 times
Seeders:  3  [  134 KB/s  ]   Leechers:  1  [  4 MB/s  ]   Show peers in full details
 
 
 
 
Author Message

BiOS ®

Longevity: 5 years 7 months

Posts: 2348

Location: Earth


Post 23-Oct-2019 12:20

[Quote]

Информатор / Inside Man: Most Wanted - Производство: США / Universal 1440 Entertainment
Жанр: Боевик, триллер, драма, криминал
Режиссер: М. Дж. Бассетт
Актеры: Ри Сихорн, Роксанна МакКи, Амл Амин, Таня ван Граан, Джессика Саттон, Дженни Умбау, Акшай Кумар, Грег Крик, Андре Джейкобс, Свен Райгрок
Описание:
Полицейский отряд объединяется с федеральным агентом для спасения десятков туристов до того, как их постигнет ужасная судьба. Туристы взяты в заложники в федеральном резервном банке США, который подвергается осаде в течение 10 часов подряд. Фильм является продолжением криминальной драмы Спайка Ли 2006 года "Не пойман – не вор".

Возраст: 16+ (зрителям, достигшим 16 лет)
Рейтинг MPAA: R (лицам до 17 лет обязательно присутствие взрослого)
Дата мировой премьеры: 24 сентября 2019
Дата российской премьеры: Неизвестно
Продолжительность: 01:45:45
Качество видео: HDRip
Перевод: Двухголосый любительский (Синема УС)
Субтитры: Английские
Видео: HEVC/H.265, 1024x512, ~1952 Kbps
Аудио 1: AC3, 2 ch, 160 Kbps - Русский
Аудио 2: AC3, 2 ch, 160 Kbps - Английский

MediaInfo:

Общее
Уникальный идентификатор : 215287967576934173641716231379413421979 (0xA1F6F44FC660C55E857B01B3CC70CF9B)
Полное имя : Inside.Man.Most.Wanted.2019.HDRip.10bit.HEVC.mkv
Формат : Matroska
Версия формата : Version 4 / Version 2
Размер файла : 1,71 Гбайт
Продолжительность : 1 ч. 45 м.
Общий поток : 2319 Кбит/сек
Программа кодирования : XviD4PSP 8.0.77
Библиотека кодирования : Lavf58.20.100
ErrorDetectionType : Per level 1
ENCODING_INFO : MATROSKA,WEBM > MKV
Видео
Идентификатор : 1
Формат : HEVC
Формат/Информация : High Efficiency Video Coding
Профиль формата : Main [email protected]@High
Идентификатор кодека : V_MPEGH/ISO/HEVC
Продолжительность : 1 ч. 45 м.
Битрейт : 1952 Кбит/сек
Ширина : 1024 пикселя
Высота : 512 пикселей
Соотношение сторон : 2,000
Режим частоты кадров : Постоянный
Частота кадров : 23,976 (24000/1001) кадра/сек
Цветовое пространство : YUV
Субдискретизация насыщенности : 4:2:0
Битовая глубина : 10 бит
Бит/(Пиксели*Кадры) : 0.155
Размер потока : 1,44 Гбайт (84%)
Язык : English
Default : Да
Forced : Нет
Цветовой диапазон : Full
ENCODING_INFO : H264 > HEVC NVENC VBR 2000kbps HQ
Аудио #1
Идентификатор : 2
Формат : AC-3
Формат/Информация : Audio Coding 3
Параметр Endianness формата : Big
Идентификатор кодека : A_AC3
Продолжительность : 1 ч. 45 м.
Вид битрейта : Постоянный
Битрейт : 160 Кбит/сек
Каналы : 2 канала
Расположение каналов : Front: L R
Частота : 48,0 КГц
Частота кадров : 31,250 кадров/сек (1536 SPF)
Битовая глубина : 16 бит
Метод сжатия : С потерями
Размер потока : 121 Мбайт (7%)
Язык : Russian
ServiceKind/String : Complete Main
Default : Да
Forced : Нет
ENCODING_INFO : AC3 > AC3 CBR 160kbps
Аудио #2
Идентификатор : 3
Формат : AC-3
Формат/Информация : Audio Coding 3
Параметр Endianness формата : Big
Идентификатор кодека : A_AC3
Продолжительность : 1 ч. 45 м.
Вид битрейта : Постоянный
Битрейт : 160 Кбит/сек
Каналы : 2 канала
Расположение каналов : Front: L R
Частота : 48,0 КГц
Частота кадров : 31,250 кадров/сек (1536 SPF)
Битовая глубина : 16 бит
Метод сжатия : С потерями
Размер потока : 121 Мбайт (7%)
Язык : English
ServiceKind/String : Complete Main
Default : Нет
Forced : Нет
ENCODING_INFO : DTS > AC3 CBR 160kbps
Текст
Идентификатор : 4
Формат : UTF-8
Идентификатор кодека : S_TEXT/UTF8
Идентификатор кодека/Информация : UTF-8 Plain Text
Язык : English
Default : Да
Forced : Нет
ENCODING_INFO : SUBRIP > COPY Быстрое
Меню
00:00:00.000 : :00:00:00.000
00:07:20.190 : :00:07:20.190
00:12:18.947 : :00:12:18.947
00:18:31.319 : :00:18:31.319
00:24:28.342 : :00:24:28.342
00:30:21.403 : :00:30:21.403
00:34:20.475 : :00:34:20.475
00:40:11.576 : :00:40:11.576
00:45:36.150 : :00:45:36.150
00:50:35.199 : :00:50:35.199
00:54:39.401 : :00:54:39.401
00:58:05.982 : :00:58:05.982
01:01:56.546 : :01:01:56.546
01:06:57.555 : :01:06:57.555
01:13:02.169 : :01:13:02.169
01:15:33.696 : :01:15:33.696
01:21:11.533 : :01:21:11.533
01:27:34.374 : :01:27:34.374
01:33:13.004 : :01:33:13.004
01:40:59.845 : :01:40:59.845
-Скриншоты:


Смотреть онлайн


[trackeroc.org].29395.torrent 
Torrent: Registered   [ 2019-10-23 12:20 ]

Скачать торрент

18 KB

Status: checked
Completed: 16 times
Size: 1.71 GB
 

Admin (23-окт-19)
Similar torrent
Forum Topic Author Size
Зомби игры, Survival, Horror The Beast Inside v1.03 (2019) PC | Repack от SpaceX Admin 9.71 GB
Детективы ,криминал Не пойман – не вор / Inside Man (2006) BDRip BiOS 1.46 GB
Зомби игры, Survival, Horror The Beast Inside (2019) [Ru/Multi] (1.0) Repack Other s BiOS 8.43 GB
Visual Novel, Визуальные новеллы Come Inside (2019) [RUS+ENG] (0.2) [L] Admin 1.02 GB

_________________
[Profile] [PM]
Display posts from previous:    
Reply to topic

The time now is: Today 18:03

All times are GMT + 4 Hours



You cannot post new topics in this forum
You cannot reply to topics in this forum
You cannot edit your posts in this forum
You cannot delete your posts in this forum
You cannot vote in polls in this forum
You cannot attach files in this forum
You can download files in this forum