Живая мертвечина / Мертв мозгом / Braindead / Dead Alive (1992) [Director's Cut] DVDRip [H.264] скачать торрент

Reply to topic

DL-List and Torrent activity [Update пиров]
Size:  2.05 GB   |    Registered:  7 days   |    Completed:  0 times
Seeders:  6  [  121 KB/s  ]   Leechers:  1  [  1 MB/s  ]   Show peers in full details
 
 
 
 
Author Message

BiOS ®

Longevity: 5 years 4 months

Posts: 2279

Location: East Siberia


Post 10-Sep-2019 02:59

[Quote]

Живая мертвечина / Мертв мозгом / Braindead / Dead Alive
«The rot has set in....»
- Страна: Новая Зеландия
Жанр: Ужасы, Комедия
Режиссер: Питер Джексон /Peter Jackson
Актеры: Тимоти Балме, Диана Пеньялвер, Элизабет Муди, Иан Уоткин, Стюарт Девени, Бренда Кендл, Джед Брофи
Описание:
1957 год. Застенчивый молодой человек Лайонел, полностью и во всем подчиняющейся самовлюбленной, доминантной матери, знакомится и влюбляется в очаровательную испанку Пакиту, работающую в местной продуктовой лавочке. Матери Лайнела это, естественно, не нравится, и она следит за ними на свидании в зоопарке, где ее кусает "обезьянокрыса" с острова Суматры, последний экземпляр, между прочим, тут же, в жестоких муках, погибающий от каблука мамаши. Дальнейшие события предугадать не сложно - заразившись от укуса неизвестным вирусом, мать Лайонела в муках умирает, съев предварительно собаку Пакиты, но только для того, чтобы превратиться в зомби, жаждущего плоти. Постепенно, стараниями мамочки, количество живых трупов в подвале у Лайнела увеличивается, а объем сопутствующих этому проблем растет буквально в геометрической прогрессии, что вскоре взрывается апофеозом кровавой резни...

Рейтинг MPAA: R (лицам до 17 лет обязательно присутствие взрослого)
Дата мировой премьеры: 30 июля 1992
Продолжительность: 01:39:24
Качество видео: DVDRip
Перевод: Многоголосый закадровый, Одноголосный закадровый (3 варианта)
Примечание: Дорожки с Гоблиным, Гавриловым и Визгуновым взяты из театральной версии, в вырезанных местах добавлен звук из дорожки с многоголосым переводом.
Субтитры: Русские
Видео: MPEG4 Video (H264), [email protected] 1024x576, 25fps, 1989 Kbp/s, 0.183 bit/pixel
Аудио 1:Dolby AC3, 48000Hz, stereo, 192Kbp/s - Многоголосый
Аудио 2:Dolby AC3, 48000Hz, stereo, 192Kbps - Гоблин
Аудио 3:Dolby AC3, 48000Hz, stereo, 192Kbps - Гаврилов
Аудио 4:Dolby AC3, 48000Hz, stereo, 192Kbps - Визгунов
Аудио 5:Dolby AC3, 48000Hz, stereo, 192Kbps - Оригинальная дорожка

Mediainfo

Код:
General
Format                                   : Matroska
Format version                           : Version 1
File size                                : 2.05 GiB
Duration                                 : 1h 39mn
Overall bit rate                         : 2 954 Kbps
Encoded date                             : UTC 2009-03-02 04:25:06
Writing application                      : mkvmerge v2.4.0 ('Fumbling Towards Ecstasy') built on Oct 11 2008 20:13:15
Writing library                          : libebml v0.7.7 + libmatroska v0.8.1
Video
ID                                       : 1
Format                                   : AVC
Format/Info                              : Advanced Video Codec
Format profile                           : [email protected]
Format settings, CABAC                   : Yes
Format settings, ReFrames                : 4 frames
Codec ID                                 : V_MPEG4/ISO/AVC
Duration                                 : 1h 39mn
Bit rate                                 : 1 989 Kbps
Width                                    : 704 pixels
Height                                   : 576 pixels
Display aspect ratio                     : 16:9
Original display aspect ratio            : 1.222
Frame rate mode                          : Constant
Frame rate                               : 25.000 fps
Standard                                 : PAL
Color space                              : YUV
Chroma subsampling                       : 4:2:0
Bit depth                                : 8 bits
Scan type                                : Progressive
Bits/(Pixel*Frame)                       : 0.196
Stream size                              : 1.34 GiB (66%)
Writing library                          : x264 core 66 r1115M 11863ac
Encoding settings                        : cabac=1 / ref=4 / deblock=1:-1:-1 / analyse=0x3:0x113 / me=umh / subme=7 / psy_rd=1.0:0.0 / mixed_ref=1 / me_range=16 / chroma_me=1 / trellis=2 / 8x8dct=1 / cqm=0 / deadzone=21,11 / chroma_qp_offset=-2 / threads=3 / nr=0 / decimate=1 / mbaff=0 / bframes=3 / b_pyramid=0 / b_adapt=2 / b_bias=0 / direct=3 / wpredb=1 / keyint=250 / keyint_min=25 / scenecut=40(pre) / rc=2pass / bitrate=1989 / ratetol=1.0 / qcomp=0.60 / qpmin=10 / qpmax=51 / qpstep=4 / cplxblur=20.0 / qblur=0.5 / vbv_maxrate=50000 / vbv_bufsize=50000 / ip_ratio=1.40 / pb_ratio=1.30 / aq=1:1.00
Language                                 : English
Default                                  : Yes
Forced                                   : No
Audio #1
ID                                       : 2
Format                                   : AC-3
Format/Info                              : Audio Coding 3
Mode extension                           : CM (complete main)
Format settings, Endianness              : Big
Codec ID                                 : A_AC3
Duration                                 : 1h 39mn
Bit rate mode                            : Constant
Bit rate                                 : 192 Kbps
Channel(s)                               : 2 channels
Channel positions                        : Front: L R
Sampling rate                            : 48.0 KHz
Bit depth                                : 16 bits
Compression mode                         : Lossy
Stream size                              : 137 MiB (6%)
Title                                    : MVO
Language                                 : Russian
Default                                  : Yes
Forced                                   : No
Audio #2
ID                                       : 3
Format                                   : AC-3
Format/Info                              : Audio Coding 3
Mode extension                           : CM (complete main)
Format settings, Endianness              : Big
Codec ID                                 : A_AC3
Duration                                 : 1h 39mn
Bit rate mode                            : Constant
Bit rate                                 : 192 Kbps
Channel(s)                               : 2 channels
Channel positions                        : Front: L R
Sampling rate                            : 48.0 KHz
Bit depth                                : 16 bits
Compression mode                         : Lossy
Stream size                              : 137 MiB (6%)
Title                                    : Гоблин
Language                                 : Russian
Default                                  : No
Forced                                   : No
Audio #3
ID                                       : 4
Format                                   : AC-3
Format/Info                              : Audio Coding 3
Mode extension                           : CM (complete main)
Format settings, Endianness              : Big
Codec ID                                 : A_AC3
Duration                                 : 1h 39mn
Bit rate mode                            : Constant
Bit rate                                 : 192 Kbps
Channel(s)                               : 2 channels
Channel positions                        : Front: L R
Sampling rate                            : 48.0 KHz
Bit depth                                : 16 bits
Compression mode                         : Lossy
Stream size                              : 137 MiB (6%)
Title                                    : Гаврилов
Language                                 : Russian
Default                                  : No
Forced                                   : No
Audio #4
ID                                       : 5
Format                                   : AC-3
Format/Info                              : Audio Coding 3
Mode extension                           : CM (complete main)
Format settings, Endianness              : Big
Codec ID                                 : A_AC3
Duration                                 : 1h 39mn
Bit rate mode                            : Constant
Bit rate                                 : 192 Kbps
Channel(s)                               : 2 channels
Channel positions                        : Front: L R
Sampling rate                            : 48.0 KHz
Bit depth                                : 16 bits
Compression mode                         : Lossy
Stream size                              : 137 MiB (6%)
Title                                    : Визгунов
Language                                 : Russian
Default                                  : No
Forced                                   : No
Audio #5
ID                                       : 6
Format                                   : AC-3
Format/Info                              : Audio Coding 3
Mode extension                           : CM (complete main)
Format settings, Endianness              : Big
Codec ID                                 : A_AC3
Duration                                 : 1h 39mn
Bit rate mode                            : Constant
Bit rate                                 : 192 Kbps
Channel(s)                               : 2 channels
Channel positions                        : Front: L R
Sampling rate                            : 48.0 KHz
Bit depth                                : 16 bits
Compression mode                         : Lossy
Stream size                              : 137 MiB (6%)
Language                                 : English
Default                                  : No
Forced                                   : No
Text
ID                                       : 7
Format                                   : VobSub
Muxing mode                              : zlib
Codec ID                                 : S_VOBSUB
Codec ID/Info                            : The same subtitle format used on DVDs
Language                                 : Russian
Default                                  : Yes
Forced                                   : No

Дополнительная информация о фильме

Один из первых фильмов Питера Джексона, режиссера культовой кинотрилогии "Властелин Колец".
• "Мертв мозгом" вышел в США в сокращенной версии. Помимо жестокости американцы вырезали несколько сцен с диалогами. Кроме того, фильм был переименован в "Dead Alive" ("Живая мертвечина"), так как в портфолио дистрибьютора уже был фильм с названием "Brain Dead". Данная раздаваемая версия - полная.
• Для съемок знаменитой сцены с газонокосилкой из нее распылялось 300 литров искусственной крови в секунду - мировой рекорд по потреблению искусственной крови.
• Куклу "крысообезьяны" анимировал по технологии "Stop Motion" сам Питер Джексон.
• "Остров Черепов" - тот самый остров, на котором водится легендарный Кинг Конг. В фильме "Кинг Конг" Питера Джексона на борту корабля видно пустую клетку "Крысообезьяна с Суматры". Снимался же Остров Черепов в том же месте, что и Тропы Мертвецов в "Властелине Колец: Возвращении Короля".
• Элизабет Муди (мать Лайонела) появилась в режиссерской версии в роли Лобелии Саквиль-Бэггинс на дне рождения Бильбо.
• Джед Брофи (панк-зомби Войд) играл в "Двух Крепостях" орка-всадника на варге.
• Фрэнсес Уолш (жена Питера Джексона) играла одну из мамаш в парке. Сцена в парке - любимая сцена Джексона из фильма, он снял ее в последний день (т.к. еще оставались деньги).
• Мать Питера Джексона играет женщину в зоопарке, которая говорит "Ооо!", когда мамаша Лайонела убивает крысообезьяну.
-Скриншоты:


Смотреть онлайн


[trackeroc.org].29078.torrent 
Torrent: Registered   [ 2019-09-10 02:59 ]

Скачать торрент

11 KB

Status: checked
Completed: 16 times
Size: 2.05 GB
 

Angel (10-сен-19), Admin (10-сен-19)

_________________
[Profile] [PM]
Display posts from previous:    
Reply to topic

The time now is: Today 14:50

All times are GMT + 4 Hours



You cannot post new topics in this forum
You cannot reply to topics in this forum
You cannot edit your posts in this forum
You cannot delete your posts in this forum
You cannot vote in polls in this forum
You cannot attach files in this forum
You can download files in this forum