Жуки (2019) WEB-DLRip (сезон 1, серии 1-8 из 16) скачать торрент

Reply to topic

DL-List and Torrent activity [Update пиров]
Size:  2.34 GB   |    Registered:  6 days   |    Completed:  0 times
Seeders:  5  [  33 KB/s  ]   Show peers in full details
 
 
 
 
Author Message

BiOS ®

Longevity: 5 years 4 months

Posts: 2279

Location: East Siberia


Post 10-Sep-2019 23:32

[Quote]

Жуки - Производство: Россия / Comedy Club Production
Жанр: комедия
Режиссер: Константин Смирнов
Актеры: Вячеслав Чепурченко, Вадим Дубровин, Павел Комаров, Максим Лагашкин, Анастасия Акатова, Дмитрий Радонов, Валерий Новиков, Александр Робак, Владимир Епифанцев, Игорь Верник, Анатолий Журавлёв
Описание:
Никита, Дэн и Артемий разработали уникальное приложение для смартфонов, вот-вот продадут его и осуществят все свои мечты. Но в последний момент многомиллионная сделка срывается и парней забирают в армию. Чтобы не ставить под угрозу успех своего стартапа, они выбирают альтернативную службу в глухой деревне Жуки, где будут пытаться довести свой проект до конца. Только не так просто разрабатывать приложение там, где нет даже интернета…

Дата российской премьеры: 02.09.2019
Продолжительность: ~ 00:25:00 серия
Качество видео: WEB-DLRip
Видео: XviD, 720x400 (16:9), ~1467 Kbps
Аудио: MP3, 2 ch, 192 Kbps

MediaInfo:

General
Format : AVI
Format/Info : Audio Video Interleave
File size : 300 MiB
Duration : 25 min 6 s
Overall bit rate : 1 669 kb/s
Writing application : VirtualDubMod 1.5.10.3 | www.virtualdub-fr.org || (build 2550/release)
Writing library : VirtualDubMod build 2550/release
Video
ID : 0
Format : MPEG-4 Visual
Format profile : Advanced [email protected]
Format settings : BVOP1
Format settings, BVOP : 1
Format settings, QPel : No
Format settings, GMC : No warppoints
Format settings, Matrix : Default (MPEG)
Codec ID : XVID
Codec ID/Hint : XviD
Duration : 25 min 6 s
Bit rate : 1 467 kb/s
Width : 720 pixels
Height : 400 pixels
Display aspect ratio : 16:9
Frame rate : 25.000 FPS
Color space : YUV
Chroma subsampling : 4:2:0
Bit depth : 8 bits
Scan type : Progressive
Compression mode : Lossy
Bits/(Pixel*Frame) : 0.204
Stream size : 263 MiB (88%)
Writing library : XviD 73
Audio
ID : 1
Format : AC-3
Format/Info : Audio Coding 3
Commercial name : Dolby Digital
Codec ID : 2000
Duration : 25 min 6 s
Bit rate mode : Constant
Bit rate : 192 kb/s
Channel(s) : 2 channels
Channel layout : L R
Sampling rate : 48.0 kHz
Frame rate : 31.250 FPS (1536 SPF)
Bit depth : 16 bits
Compression mode : Lossy
Stream size : 34.5 MiB (12%)
Alignment : Split across interleaves
Interleave, duration : 40 ms (1.00 video frame)
Interleave, preload duratio : 500 ms
Service kind : Complete Main
-Скриншоты:


Смотреть онлайн


[trackeroc.org].29090.torrent 
Torrent: Registered   [ 2019-09-10 23:32 ]

Скачать торрент

13 KB

Status: T temporary
Completed: 19 times
Size: 2.34 GB
 

Admin (10-сен-19)
Similar torrent
Forum Topic Author Size
Visual Novel, Визуальные новеллы The Headmaster v0.5.3 (2019) (ENG+RUS) Admin 9.08 GB
Пасьянсы, карточные игры Солитер: Зов чести / Solitaire Call of Honor (2019) (RUS) Admin 158 MB
Arcade Mable & The Wood [RUS + ENG + 7] (2019) (1.0.6) [GOG] Admin 576 MB
Adventure Children of Morta v1.0.6 (2019) (RUS|ENG|MULTi9) GOG Admin 1.88 GB
Зомби игры, Survival, Horror Daymare: 1998 (2019) (RUS/ENG) Admin 20.35 GB

_________________
[Profile] [PM]
Display posts from previous:    
Reply to topic

The time now is: Today 15:02

All times are GMT + 4 Hours



You cannot post new topics in this forum
You cannot reply to topics in this forum
You cannot edit your posts in this forum
You cannot delete your posts in this forum
You cannot vote in polls in this forum
You cannot attach files in this forum
You can download files in this forum