Ко­рабль-приз­рак / Sora tobu yuureisen / The Flying Ghost Ship (1969) DVDRip [H.264/720p] скачать торрент

Reply to topic

DL-List and Torrent activity [Update пиров]
Size:  1.69 GB   |    Registered:  1 month 23 days   |    Completed:  0 times
Seeders:  4  [  0 KB/s  ]   Leechers:  3  [  56 KB/s  ]   Show peers in full details
 
 
 
 
Author Message

BiOS ®

Longevity: 5 years 9 months

Posts: 2401

Location: Earth


Post 01-Apr-2017 00:52

[Quote]

Ко­рабль-приз­рак / Sora tobu yuureisen / The Flying Ghost Ship - Производство: Япония
Жанр: Анимация, Боевик, Детский, Фантастика, Приключения
Режиссер: Хироши Икеда
Актеры: Хаято Таки, Джек, Господин Куросио, Боа, Гигантский Робот Голем, Капитан-призрак, Рурико и д.р.
Описание:
Многие годы в океане бесследно пропадают корабли. Люди, чудом оставшиеся в живых, вспоминают что незадолго до катастрофы они видели таинственный Корабль-Призрак… Гигантский робот Голем разрушающий кварталы Токио, объявляет себя посланцем Корабля-Призрака…
На улицах города, у всех на глазах исчезают люди. Все считают, что это козни Корабля-Призрака… И только у отважного мальчика Хаято есть повод сомневаться в этом. Он готов отправиться в рискованное приключение, чтобы узнать тайну Корабля-Призрака и его загадочного капитана!

Дата мировой премьеры: 20 июля 1969
Рейтинг MPAA: PG-13 (детям до 13 лет просмотр нежелателен)
Продолжительность: 01:00:27
Качество видео: DVDRip
Перевод: Профессиональный (многоголосый, закадровый)
Субтитры: Отсутствуют
Реклама: Отсутствует
Видео: MPEG-4/AVC, 1280x720 (16:9), ~4240 Kbps
Аудио: AC-3, 48.0 KHz, 2 ch, 256 Kbps

Mediainfo:

Код:
General
Complete name : Корабль-призрак (1969) DVDRip.mp4
Format : MPEG-4
Format profile : Base Media
Codec ID : isom
File size : 1.69 GiB
Duration : 53mn 40s
Overall bit rate mode : Constant
Overall bit rate : 4 500 Kbps
Writing application : Lavf57.71.100
Video #1
ID : 1
Format : AVC
Format/Info : Advanced Video Codec
Format profile : [email protected]
Format settings, CABAC : Yes
Format settings, ReFrames : 1 frame
Format settings, GOP : M=1, N=25
Codec ID : avc1
Codec ID/Info : Advanced Video Coding
Duration : 53mn 40s
Duration_FirstFrame : 40ms
Bit rate mode : Constant
Bit rate : 4 240 Kbps
Width : 1 280 pixels
Height : 720 pixels
Display aspect ratio : 16:9
Frame rate mode : Constant
Frame rate : 25.000 fps
Color space : YUV
Chroma subsampling : 4:2:0
Bit depth : 8 bits
Scan type : Progressive
Bits/(Pixel*Frame) : 0.184
Stream size : 1.59 GiB (94%)
Audio #2
ID : 2
Format : AC-3
Format/Info : Audio Coding 3
Mode extension : CM (complete main)
Format settings, Endianness : Big
Codec ID : ac-3
Duration : 53mn 40s
Bit rate mode : Constant
Bit rate : 256 Kbps
Channel(s) : 2 channels
Channel positions : Front: L R
Sampling rate : 48.0 KHz
Bit depth : 16 bits
Compression mode : Lossy
Stream size : 98.3 MiB (6%)
Language : English
-Скриншоты:


Смотреть онлайн


[trackeroc.org].19473.torrent 
 SILVER TORRENT! DOWNLOAD TRAFFIC PARTIALLY CONSIDERED! 
Torrent: Registered   [ 2019-11-25 13:26 ]

Скачать торрент

18 KB

Status: checked
Completed: 136 times
Size: 1.69 GB
 

Admin (01-апр-17)

_________________


Last edited by BiOS on 2019-11-25 07:57; edited 8 times in total
[Profile] [PM]
Display posts from previous:    
Reply to topic

The time now is: Today 01:19

All times are GMT + 4 Hours



You cannot post new topics in this forum
You cannot reply to topics in this forum
You cannot edit your posts in this forum
You cannot delete your posts in this forum
You cannot vote in polls in this forum
You cannot attach files in this forum
You can download files in this forum