Курьер / The Courier (2019) WEBRip [MVO] [AD] скачать торрент

Reply to topic

DL-List and Torrent activity [Update пиров]
Size:  1.33 GB   |    Registered:  12 days   |    Completed:  0 times
Seeders:  5  [  519 KB/s  ]   Show peers in full details
 
 
 
 
Author Message

BiOS ®

Longevity: 5 years 7 months

Posts: 2374

Location: Earth


Post 29-Nov-2019 11:42

[Quote]

Курьер / The Courier - Производство: Великобритания, США / Rollercoaster Angel Productions, Signature Films
Жанр: Боевик, триллер, драма
Режиссер: Закари Адлер
Актеры: Ольга Куриленко, Гэри Олдман, Амит Шах, Алисия Агнесон, Грег Орвис, Крэйг Конуэй, Уильям Моусли, Дермот Малруни, Гордон Александр, Нил Чапелоу
Описание:
На первый взгляд, она — всего лишь курьер на черном мотоцикле, стремительно пронзающем ночной Лондон. Но даже в огромном мегаполисе красотке удается ускользнуть от уличных камер, и ее имя невозможно найти ни в одной базе данных. Именно она, дерзкая и неуловимая, бросит вызов могущественному криминальному боссу. И ему лучше не знать, кто на самом деле эта взрывная брюнетка…

Возраст: 18+ (зрителям, достигшим 18 лет. запрещено для детей)
Рейтинг MPAA: R (лицам до 17 лет обязательно присутствие взрослого)
Дата мировой премьеры: 22 ноября 2019
Дата премьеры в России: 12 декабря 2019

Продолжительность: 01:38:22
Качество видео: WEBRip
Перевод: Многоголосый закадровый, любительский (MUZOBOZ)
Субтитры: Отсутствуют
Реклама: Присутствует баннер.
Видео: XviD, 720x304, ~1542 Kbps
Аудио: AC-3, 2 ch, 384 Kbps

MediaInfo:

Общее
Полное имя : The.Courier.2019.WEB-DLRip.avi
Формат : AVI
Формат/Информация : Audio Video Interleave
Профиль формата : OpenDML
Размер файла : 1,33 Гбайт
Продолжительность : 1 ч. 38 м.
Общий поток : 1938 Кбит/сек
Видео
Идентификатор : 0
Формат : MPEG-4 Visual
Профиль формата : Advanced [email protected]
Настройки формата : BVOP2 / Custom Matrix
Параметр BVOP формата : 2
Параметр QPel формата : Нет
Параметр GMC формата : Без точки перехода
Параметр матрицы формата : Выборочная
Идентификатор кодека : XVID
Идентификатор кодека/Подсказка : XviD
Продолжительность : 1 ч. 38 м.
Битрейт : 1542 Кбит/сек
Ширина : 720 пикселей
Высота : 304 пикселя
Соотношение сторон : 2,35:1
Частота кадров : 23,976 (24000/1001) кадра/сек
Цветовое пространство : YUV
Субдискретизация насыщенности : 4:2:0
Битовая глубина : 8 бит
Тип развёртки : Прогрессивная
Метод сжатия : С потерями
Бит/(Пиксели*Кадры) : 0.294
Размер потока : 1,06 Гбайт (80%)
Библиотека кодирования : XviD 1.2.1 (UTC 2008-12-04)
Аудио
Идентификатор : 1
Формат : AC-3
Формат/Информация : Audio Coding 3
Коммерческое название : Dolby Digital
Идентификатор кодека : 2000
Продолжительность : 1 ч. 38 м.
Вид битрейта : Постоянный
Битрейт : 384 Кбит/сек
Каналы : 2 канала
ChannelLayout : L R
Частота : 48,0 КГц
Частота кадров : 31,250 кадров/сек (1536 SPF)
Битовая глубина : 16 бит
Метод сжатия : С потерями
Размер потока : 270 Мбайт (20%)
Выравнивание : Соединение по промежуткам
Продолжительность промежутка : 32 мс. (0,77 видеокадр)
ServiceKind/String : Complete Main
-Скриншоты:


Смотреть онлайн


[trackeroc.org].29586.torrent 
Torrent: Registered   [ 2019-11-29 11:42 ]

Скачать торрент

14 KB

Status: T temporary
Completed: 8 times
Size: 1.33 GB
 

Admin (30-ноя-19)

_________________
[Profile] [PM]
Display posts from previous:    
Reply to topic

The time now is: Today 01:28

All times are GMT + 4 Hours



You cannot post new topics in this forum
You cannot reply to topics in this forum
You cannot edit your posts in this forum
You cannot delete your posts in this forum
You cannot vote in polls in this forum
You cannot attach files in this forum
You can download files in this forum