Мамонты: Гиганты ледникового периода / Mammoths. Giants of the Ace (2014) WEB-DL [H.264/1080p] скачать торрент

Reply to topic

DL-List and Torrent activity [Update пиров]
Size:  3.53 GB   |    Registered:  8 days   |    Completed:  0 times
Seeders:  1  [  0 KB/s  ]   Leechers:  1  [  0 KB/s  ]   Show peers in full details
 
 
 
 
Author Message

Admin ®

Longevity: 5 years 5 months

Posts: 8789

Location: Скачать торрент


Post 31-Aug-2019 12:42

[Quote]

Мамонты: Гиганты ледникового периода / Mammoths. Giants of the Ace - Производство: Германия, Франция / Bilderfest GmbH, ARTE, ZDF - Enterprises
Жанр: Документальный, палеонтология, археология
Режиссер: Флориан Брейер
Описание:
Мамонты возвращаются... Мы знали о них всегда. Наши первые художники были одержимы ими. И сегодня мы как никогда близки к этим гигантам с бивнями. Когда-то они завоевали планету, но затем загадочно исчезли... Сможем ли мы приблизиться к ним настолько, чтобы узнать причину их исчезновения? И даже воскресить их в лаборатории?
Релиз от: DaVinci (Science)
Продолжительность: 00:46:00
Качество видео: WEB-DL
Перевод: Двуголосый закадровый, профессиональный (Видеофильм-ТВ), одноголосый закадровый, профессиональный (Viasat)
Субтитры: Английские
Видео: AVC/H.264, 1920x1080, ~10,4 Mbps
Аудио#1: AC3, 2 ch, 192 Kbps | Русский (Видеофильм-ТВ)
Аудио#2: AC3, 2 ch, 192 Kbps | Русский (Viasat)
Аудио#3: E-AC3, 2 ch, 224 Kbps | Английский

Mediainfo:

Общее
Уникальный идентификатор : 195693703067970612887017859550797519752 (0x93393C7BF8D63E258E40E688691E5B88)
Полное имя : Mammoths.Giants.of.the.Ice.Age.(2014).1080p.WEB-DL.2xRus.Eng-BLUEBIRD.mkv
Формат : Matroska
Версия формата : Version 4
Размер файла : 3,53 Гбайт
Продолжительность : 46 м. 0 с.
Общий поток : 11,0 Мбит/сек
Дата кодирования : UTC 2019-09-22 06:16:15
Программа кодирования : mkvmerge v8.0.0 ('Til The Day That I Die') 32bit
Библиотека кодирования : libebml v1.3.1 + libmatroska v1.4.2
Видео
Идентификатор : 1
Формат : AVC
Формат/Информация : Advanced Video Codec
Профиль формата : [email protected]
Настройки формата : CABAC / 4 Ref Frames
Параметр CABAC формата : Да
Параметр RefFrames формата : 4 кадра
Идентификатор кодека : V_MPEG4/ISO/AVC
Продолжительность : 46 м. 0 с.
Битрейт : 10,4 Мбит/сек
Ширина : 1920 пикселей
Высота : 1080 пикселей
Соотношение сторон : 16:9
Режим частоты кадров : Постоянный
Частота кадров : 29,970 (30000/1001) кадров/сек
Цветовое пространство : YUV
Субдискретизация насыщенности : 4:2:0
Битовая глубина : 8 бит
Тип развёртки : Прогрессивная
Бит/(Пиксели*Кадры) : 0.167
Размер потока : 3,34 Гбайт (94%)
Заголовок : MPEG-4 AVC Video / 10.4 Mbps / 1080p / 29.970 fps / 16:9 / High Profile 4
Default : Да
Forced : Нет
Цветовой диапазон : Limited
Основные цвета : BT.709
Характеристики трансфера : BT.709
Коэффициенты матрицы : BT.709
Аудио #1
Идентификатор : 2
Формат : AC-3
Формат/Информация : Audio Coding 3
Коммерческое название : Dolby Digital
Идентификатор кодека : A_AC3
Продолжительность : 46 м. 0 с.
Вид битрейта : Постоянный
Битрейт : 192 Кбит/сек
Каналы : 2 канала
ChannelLayout : L R
Частота : 48,0 КГц
Частота кадров : 31,250 кадров/сек (1536 SPF)
Метод сжатия : С потерями
Размер потока : 63,2 Мбайт (2%)
Заголовок : rus (VideoFilm TV) / AC3 / 2.0 / 48 kHz / 192 kbps / 16-bit
Язык : Russian
ServiceKind/String : Complete Main
Default : Да
Forced : Да
Аудио #2
Идентификатор : 3
Формат : AC-3
Формат/Информация : Audio Coding 3
Коммерческое название : Dolby Digital
Идентификатор кодека : A_AC3
Продолжительность : 46 м. 0 с.
Вид битрейта : Постоянный
Битрейт : 192 Кбит/сек
Каналы : 2 канала
ChannelLayout : L R
Частота : 48,0 КГц
Частота кадров : 31,250 кадров/сек (1536 SPF)
Метод сжатия : С потерями
Размер потока : 63,2 Мбайт (2%)
Заголовок : rus (Viasat) / AC3 / 2.0 / 48 kHz / 192 kbps / 16-bit
Язык : Russian
ServiceKind/String : Complete Main
Default : Нет
Forced : Нет
Аудио #3
Идентификатор : 4
Формат : E-AC-3
Формат/Информация : Enhanced AC-3
Коммерческое название : Dolby Digital Plus
Идентификатор кодека : A_EAC3
Продолжительность : 46 м. 0 с.
Вид битрейта : Постоянный
Битрейт : 224 Кбит/сек
Каналы : 2 канала
ChannelLayout : L R
Частота : 48,0 КГц
Частота кадров : 31,250 кадров/сек (1536 SPF)
Метод сжатия : С потерями
Размер потока : 73,7 Мбайт (2%)
Заголовок : eng / E-AC3 / 2.0 / 48 kHz / 224 kbps / 16-bit
Язык : English
ServiceKind/String : Complete Main
Default : Нет
Forced : Нет
Текст
Идентификатор : 5
Формат : UTF-8
Идентификатор кодека : S_TEXT/UTF8
Идентификатор кодека/Информация : UTF-8 Plain Text
Продолжительность : 45 м. 51 с.
Битрейт : 90 бит/сек
ElementCount : 801
Размер потока : 30,5 Кбайт (0%)
Заголовок : eng / SRT
Язык : English
Default : Нет
Forced : Нет
-Скриншоты:


Смотреть онлайн


[trackeroc.org].28993.torrent 
Torrent: Registered   [ 2019-10-07 21:27 ]

Скачать торрент

19 KB

Status: checked
Completed: 14 times
Size: 3.53 GB
 

BiOS (31-авг-19)
Similar torrent
Forum Topic Author Size
Документальные ,Трейлеры Динозавры: Гиганты Патагонии / Dinosaurs: Giants of Patagonia (2007) BDRemux [H.264/1080p] BiOS 7.17 GB

_________________
[Profile] [PM]
Display posts from previous:    
Reply to topic

The time now is: Today 00:55

All times are GMT + 4 Hours



You cannot post new topics in this forum
You cannot reply to topics in this forum
You cannot edit your posts in this forum
You cannot delete your posts in this forum
You cannot vote in polls in this forum
You cannot attach files in this forum
You can download files in this forum