Майкл против Джейсона: зло возвращается / Michael vs Jason: Evil Emerges (2019) WEBRip [H.264/720p-LQ] [MVO] [AD] скачать торрент

Reply to topic

DL-List and Torrent activity [Update пиров]
Size:  1.45 GB   |    Registered:  18 days   |    Completed:  0 times
Seeders:  2  [  35 KB/s  ]   Show peers in full details
 
 
 
 
Author Message

BiOS ®

Longevity: 5 years 6 months

Posts: 2341

Location: Earth


Post 25-Oct-2019 13:58

[Quote]

Майкл против Джейсона: зло возвращается / Michael vs Jason: Evil Emerges - Производство: США / Radical Talent
Жанр: Короткометражка, боевик, ужасы
Режиссер: Люк Педдер
Актеры: Джошуа Педдер, Джон Педдер, Кристофер Голдуп, Майкл Холмс, Джексон Грин, Скотт Мэйн, Люк Педдер, Виктория Педдер
Описание:
Новая эпичная дуэль между двумя самыми смертоносными убийцами: Майклом Майерсом и Джейсоном Вурхизом. Может быть кто-то воскресил или просто разбудил его, но внезапно Джейсон просыпается посреди леса после долгого сна и слышит голос своей матери, которая призывает его вновь начать убивать. В это же время Майкл сумел сбежать из под конвоя спецотряда, который перевозил его для казни. И вот чуть позже их пути пересеклись, и никто из них не собирается делить свой участок смерти с каким-то другим убийцей, что приводит к жесточайшему столкновению между двумя легендами.
Дата мировой премьеры: 5 апреля 2019
Продолжительность: 00:28:30
Качество видео: WEBRip
Перевод: Многоголосый закадровый, профессиональный (Синема УС)
Субтитры: Отсутствуют
Реклама: Присутствует баннер.
Видео: AVC/H.264, 1280x536, ~6903 Kbps
Аудио: AC-3, 2 ch, 384 Kbps

MediaInfo:

Общее
Уникальный идентификатор : 202884247444887092632000489268422330219 (0x98A215B182E5BEC48E911EC4E5E3476B)
Полное имя : Michael.vs.Jason.Evil.Emerges.2019.WEBRip.mkv
Формат : Matroska
Версия формата : Version 2
Размер файла : 1,45 Гбайт
Продолжительность : 28 м. 30 с.
Общий поток : 7290 Кбит/сек
Дата кодирования : UTC 2019-10-25 06:57:23
Программа кодирования : mkvmerge v7.8.0 ('River Man') 32bit built on Apr 3 2015 12:11:22
Библиотека кодирования : libebml v1.3.1 + libmatroska v1.4.2
Видео
Идентификатор : 1
Формат : AVC
Формат/Информация : Advanced Video Codec
Профиль формата : [email protected]
Настройки формата : CABAC / 12 Ref Frames
Параметр CABAC формата : Да
Параметр RefFrames формата : 12 кадров
Идентификатор кодека : V_MPEG4/ISO/AVC
Продолжительность : 28 м. 30 с.
Битрейт : 6903 Кбит/сек
Ширина : 1280 пикселей
Высота : 536 пикселей
Соотношение сторон : 2,40:1
Режим частоты кадров : Постоянный
Частота кадров : 29,970 (29970/1000) кадров/сек
Цветовое пространство : YUV
Субдискретизация насыщенности : 4:2:0
Битовая глубина : 8 бит
Тип развёртки : Прогрессивная
Бит/(Пиксели*Кадры) : 0.336
Размер потока : 1,35 Гбайт (93%)
Библиотека кодирования : x264 core 146 r2538 121396c
Настройки программы : cabac=1 / ref=12 / deblock=1:-3:-3 / analyse=0x3:0x113 / me=umh / subme=11 / psy=1 / psy_rd=1.00:0.15 / mixed_ref=1 / me_range=48 / chroma_me=1 / trellis=2 / 8x8dct=1 / cqm=0 / deadzone=21,11 / fast_pskip=0 / chroma_qp_offset=-3 / threads=12 / lookahead_threads=2 / sliced_threads=0 / nr=0 / decimate=0 / interlaced=0 / bluray_compat=0 / constrained_intra=0 / bframes=12 / b_pyramid=2 / b_adapt=2 / b_bias=0 / direct=1 / weightb=1 / open_gop=0 / weightp=2 / keyint=240 / keyint_min=23 / scenecut=40 / intra_refresh=0 / rc_lookahead=40 / rc=2pass / mbtree=0 / bitrate=6903 / ratetol=1.0 / qcomp=0.60 / qpmin=0 / qpmax=69 / qpstep=4 / cplxblur=20.0 / qblur=0.5 / vbv_maxrate=50000 / vbv_bufsize=62500 / nal_hrd=none / filler=0 / ip_ratio=1.40 / pb_ratio=1.30 / aq=1:0.90
Default : Да
Forced : Нет
Аудио
Идентификатор : 2
Формат : AC-3
Формат/Информация : Audio Coding 3
Коммерческое название : Dolby Digital
Идентификатор кодека : A_AC3
Продолжительность : 28 м. 30 с.
Вид битрейта : Постоянный
Битрейт : 384 Кбит/сек
Каналы : 2 канала
ChannelLayout : L R
Частота : 48,0 КГц
Частота кадров : 31,250 кадров/сек (1536 SPF)
Битовая глубина : 16 бит
Метод сжатия : С потерями
Размер потока : 78,3 Мбайт (5%)
ServiceKind/String : Complete Main
Default : Да
Forced : Нет
-Скриншоты:


Смотреть онлайн


[trackeroc.org].29406.torrent 
Torrent: Registered   [ 2019-10-25 13:59 ]

Скачать торрент

15 KB

Status: checked
Completed: 15 times
Size: 1.45 GB
 

Admin (29-окт-19)
Similar torrent
Forum Topic Author Size
Зарубежные Мультсериалы Звёздная принцесса и силы зла / Стар против Сил Зла / Star vs. the Forces of Evil (2016) WEB-DL (сезон 2, серии 1-22 из 22) Кириллица BiOS 18.39 GB
Зарубежные Мультсериалы Звёздная принцесса и силы зла / Стар против Сил Зла / Star vs. the Forces of Evil (2015) WEB-DL (сезон 1, серии 1-13 из 13) Кириллица BiOS 11.37 GB
Зарубежные Мультсериалы Звёздная принцесса и силы зла / Стар против Сил Зла / Star vs. the Forces of Evil (2017) WEB-DL (сезон 4, серии 1-21 из 21) Кириллица BiOS 8.07 GB
Зарубежные Мультсериалы Звёздная принцесса и силы зла / Стар против Сил Зла / Star vs. the Forces of Evil (2017) WEB-DL (сезон 3, серии 1-21 из 21) Кириллица BiOS 17.99 GB

_________________
[Profile] [PM]
Display posts from previous:    
Reply to topic

The time now is: Today 22:25

All times are GMT + 4 Hours



You cannot post new topics in this forum
You cannot reply to topics in this forum
You cannot edit your posts in this forum
You cannot delete your posts in this forum
You cannot vote in polls in this forum
You cannot attach files in this forum
You can download files in this forum