Майор Гром (2017) WEB-DL [H.264/1080p-LQ] скачать торрент

Reply to topic

DL-List and Torrent activity [Update пиров]
Size:  1.6 GB   |    Registered:  2 years 6 months   |    Completed:  12 times
Seeders:  1771  [  0 KB/s  ]   Leechers:  151  [  0 KB/s  ]   Show peers in full details
 
 
 
 
Author Message

BiOS ®

Longevity: 5 years 4 months

Posts: 2280

Location: East Siberia


Post 22-Feb-2017 14:48

[Quote]

Майор Гром - Производство: Россия / Bubble Studios
Жанр: Короткометражный, Фантастика, Драма, Боевик
Режиссер: Владимир Беседин
Актеры: Александр Горбатов, Иван Фоминов, Антон Кузнецов, Данила Якушев, Ойсель Море Деспайгне, Мария Ульянова, Алина Бунк, Анатолий Кощеев, Евгения Щербакова
Описание:
Короткометражный фильм, является первой экранизацией российского комикса. Главный герой - Игорь Гром, майор полиции в городе на Неве. У него упертый и целеустремленный характер. Он готов бороться с любого рода преступностью. Четкий ум и скоординированные действия делают из него опасного соперника. Этот человек никогда не приступит морально-этические нормы, его невозможно купить, он верен лишь своему долгу. В этом эпизоде пойдет речь о грабителях банка, которым на пути и встанет наш новый супер-герой.
Возраст: 12+ (зрителям, достигшим 12 лет)
Дата российской премьеры: 19 февраля 2017
Продолжительность: 00:28:49
Качество видео: WEB-DL
Перевод: Не требуется (русский)
Субтитры: Отсутствуют
Видео: AVC/H.264, 1920x1080, ~7808 Kbps
Аудио: AAC, 2 ch, 126 Kbps

Доп.информация:

• Фильм снят по мотивам одноименного российского комикса.
• На роль Игоря Грома также рассматривался актёр Григорий Добрыгин.
• В первоначальной версии примерный хронометраж фильма составлял 7 минут, но в процессе работы сценарий оброс деталями, и в конечном итоге хронометраж вырос до 25 минут.
• Рабочее название фильма — «Майор Гром. Выходной».
• Бинт на левой руке майора Грома не задумка сценаристов, а форс-мажор. Александр Горбатов сильно поранил руку прямо накануне съёмок — врачи наложили ему 5 швов и перебинтовали кисть. В таком состоянии актёру пришлось сниматься весь месяц, при этом большую часть всех трюков Александр выполнял сам.
• Для боевых сцен в банке была разработана специальная технология съёмки в 360 градусов, ранее не применявшаяся ни в России, ни в мире.
• Действие фильма частично разворачивается в отделении Росгарантбанка — вымышленного банка из комикса «Майор Гром».
• Весь интерьер банка был построен с нуля: было продумано всё — от стоек и кабинетов до банкоматов, дизайна фирменных бланков и банковских карт.
• Общая сумма денег, изготовленных для фильма, чтобы заполнить банковское хранилище, превысила 5 миллиардов долларов.
• Статуи Посейдона в заброшенном отеле изначально не было, её изготовили и установили специально для фильма, её высота составила 5 метров.
• Чтобы написать музыку для фильма, композитор Роман Селиверстов и режиссёр Владимир Беседин заперлись в студии в Санкт-Петербурге почти на 2 месяца. Вся работа над саундтреком для 25-минутного фильма заняла 5 месяцев.
• Оркестр был записан на Abbey Road Studio One. В составе были те же музыканты, что работали над саундтреками для фильмов «Властелин колец», «Звёздные войны», «Гарри Поттер» и многими другими.
• Переговоры о покупке прав на песню Ya Mama от Fatboy Slim длились более 3 месяцев. На финальной стадии (прямо перед запуском фильма) появился риск, что сделка сорвётся. Команда решила подстраховаться и записала альтернативный трек для сцены с беспорядочной пальбой Главаря — именно эта версия и пошла в прямой эфир на life.ru в день премьеры. Однако попытки договориться с музыкантом предпринимались до последнего, вплоть до релиза фильма на YouTube, который в ущерб просмотрам пришлось отложить на 2 дня в ожидании финального подтверждения. Ставка сыграла, и в итоге «Майор Гром» был опубликован именно в том виде, в котором его задумывали авторы.
• Открывающая сцена фильма снималась с коптера, в один из дублей он зацепился за провода и упал, разбившись вдребезги. Однако необходимый кадр был снят.
• Для съёмки сцен с автомобильной погоней и аварией перекрывали целый квартал в центре города. Был разработан альтернативный маршрут движения общественного транспорта.
• Для создания масок бандитов были куплены права на использования образов героев мультфильма «Шайбу! Шайбу!».
• Специально к премьере издательство BUBBLE подготовило эксклюзивный комикс «Майор Гром. Шанс», который стал приквелом к фильму.
• Специально для фильма команда переосмыслила внешний вид российской полиции. Был разработан новый, уникальный дизайн служебной формы, машин и снаряжения.

Mediainfo:

Общее
Формат : MPEG-4
Профиль формата : Base Media
Идентификатор кодека : isom (isom/iso2/avc1/mp41)
Размер файла : 1,60 Гбайт
Продолжительность : 28 м. 49 с.
Режим общего битрейта : Переменный
Общий поток : 7946 Кбит/сек
Видео
Идентификатор : 1
Формат : AVC
Формат/Информация : Advanced Video Codec
Профиль формата : [email protected]
Параметр CABAC формата : Нет
Параметр ReFrames формата : 1 кадр
Параметр GOP формата : M=1, N=12
Идентификатор кодека : avc1
Идентификатор кодека/Информация : Advanced Video Coding
Продолжительность : 28 м. 49 с.
Duration_FirstFrame : 40 мс.
Битрейт : 7808 Кбит/сек
Ширина : 1912 пикселей
Ширина оригинала : 1920 пикселей
Высота : 1088 пикселей
Высота оригинала : 1080 пикселей
Соотношение сторон : 16:9
Соотношение сторон в оригинале : 16:9
Режим частоты кадров : Постоянный
Частота кадров : 25,000 кадров/сек
Цветовое пространство : YUV
Субдискретизация насыщенности : 4:2:0
Битовая глубина : 8 бит
Тип развёртки : Прогрессивная
Бит/(Пиксели*Кадры) : 0.150
Размер потока : 1,57 Гбайт (98%)
Цветовой диапазон : Limited
Аудио
Идентификатор : 2
Формат : AAC
Формат/Информация : Advanced Audio Codec
Профиль формата : LC
Идентификатор кодека : 40
Продолжительность : 28 м. 49 с.
Вид битрейта : Переменный
Битрейт : 126 Кбит/сек
Максимальный битрейт : 202 Кбит/сек
Каналы : 2 канала
Расположение каналов : Front: L R
Частота : 44,1 КГц
Частота кадров : 43,066 кадра/сек (1024 spf)
Метод сжатия : С потерями
Размер потока : 25,9 Мбайт (2%)
-Скриншоты:


Смотреть онлайн


[trackeroc.ru].18643.torrent 
 GOLD TORRENT! DOWNLOAD TRAFFIC DOES NOT CONSIDER! 
Torrent: Registered   [ 2017-02-23 06:55 ]

Скачать торрент

17 KB

Status: checked
Completed: 152 times
Size: 1.6 GB
 

Admin (22-фев-17)
Similar torrent
Forum Topic Author Size
Песочницы, Sandbox Avorion v0.26.1 (2017) (RUS/ENG) [Early Access] Admin 553 MB
Strategy (GOG) Tooth and Tail (1.5.1) (2017) [RUS / ENG] Admin 701 MB
Песочницы, Sandbox Stationeers v0.2.2138.9772 (2017) (RUS/ENG) [Early Access] Admin 729 MB
Strategy, Стратегии The Guild 3 v0.9.2 (2017) [RUS/ENG] [Early Access] Admin 3.41 GB
Песочницы, Sandbox The Wild Eight v0.12.14 (2017) (ENG+RUS) [Early Access] Admin 682 MB

_________________
[Profile] [PM]

BiOS ®

Longevity: 5 years 4 months

Posts: 2280

Location: East Siberia


Post 23-Feb-2017 22:11 (after 1 day 7 hours)

[Quote]

Надеюсь у Bubble получится сделать, что-то похожее на мир MARVEL!!! Комиксы зачетные у них. Если кому надо, скажите, закину. 

_________________
[Profile] [PM]
Display posts from previous:    
Reply to topic

The time now is: Today 07:06

All times are GMT + 4 Hours



You cannot post new topics in this forum
You cannot reply to topics in this forum
You cannot edit your posts in this forum
You cannot delete your posts in this forum
You cannot vote in polls in this forum
You cannot attach files in this forum
You can download files in this forum