Морская звезда / Starfish (2018) WEB-DLRip [AVO] скачать торрент

Reply to topic

DL-List and Torrent activity [Update пиров]
Size:  1.47 GB   |    Registered:  21 day   |    Completed:  1 time

Seeder not seen: 12 days

 
 
 
 
 
Author Message

BiOS ®

Longevity: 5 years 2 months

Posts: 2262

Location: East Siberia


Post 30-May-2019 00:26

[Quote]

Морская звезда / Starfish - Производство: США, We Are Tessellate, 3Roundburst Productions, Spellbound Entertainment
Жанр: Ужасы, фантастика, драма
Режиссер: Эл Уайт
Продюсер: Айда Берналь, Танро Исида, Альдо Йован Диаз
Актеры: Вирджиния Гарднер, Кристина Мастерсон, Eric Beecroft, Натали Митчелл, Шеннон Холландер, Элиас Бретт, Танро Исида, Matthew Thomas Brown, Регина Сальдивар, Андреас Виганд
Описание:
Обри переживает смерть лучшего друга, когда вдруг вторжение из параллельного измерения убивает человечество, и девушка оказывается единственной выжившей на Земле. Запершись в квартире почившего, она находит аудиокассеты с пометкой «Записи, которые спасут мир». В надежде найти подсказки к нынешнему состоянию дел Обри начинает слушать кассеты, а в это время монструозные создания заполоняют планету и подбираются к девушке.

Дата мировой премьеры: 21 сентября 2018
Релиз от: NNMClub
Продолжительность: 01:40:23
Качество видео: WEB-DLRip
Перевод: Авторский - А.Важенин (BadBajo)
Субтитры: Отсутствуют
Видео: XviD, 720x304, ~1 700 Kbps
Аудио: AC3, 6 ch, 384 Kbps - Русский (AVO)

Mediainfo:

General
Format : AVI
Format/Info : Audio Video Interleave
File size : 1.47 GiB
Duration : 1 h 40 min
Overall bit rate : 2 096 kb/s
Writing application : Lavf58.20.100
Writing library : VirtualDub build 35491/release
Video
ID : 0
Format : MPEG-4 Visual
Format profile : Advanced Simple@L5
Format settings : BVOP2
Format settings, BVOP : 2
Format settings, QPel : No
Format settings, GMC : No warppoints
Format settings, Matrix : Default (MPEG)
Codec ID : XVID
Codec ID/Hint : XviD
Duration : 1 h 40 min
Bit rate : 1 702 kb/s
Width : 720 pixels
Height : 304 pixels
Display aspect ratio : 2.35:1
Frame rate : 23.976 (24000/1001) FPS
Color space : YUV
Chroma subsampling : 4:2:0
Bit depth : 8 bits
Scan type : Progressive
Compression mode : Lossy
Bits/(Pixel*Frame) : 0.324
Stream size : 1.19 GiB (81%)
Writing library : XviD 67
Audio
ID : 1
Format : AC-3
Format/Info : Audio Coding 3
Commercial name : Dolby Digital
Codec ID : 2000
Duration : 1 h 40 min
Bit rate mode : Constant
Bit rate : 384 kb/s
Channel(s) : 6 channels
Channel layout : L R C LFE Ls Rs
Sampling rate : 48.0 kHz
Frame rate : 31.250 FPS (1536 SPF)
Bit depth : 16 bits
Compression mode : Lossy
Stream size : 276 MiB (18%)
Alignment : Aligned on interleaves
Interleave, duration : 42 ms (1.00 video frame)
Interleave, preload duratio : 512 ms
Service kind : Complete Main
-Скриншоты:


Смотреть онлайн


[trackeroc.org].28424.torrent 
Torrent: Registered   [ 2019-05-30 00:26 ]

Скачать торрент

15 KB

Status: checked
Completed: 13 times
Size: 1.47 GB
 

Admin (30-май-19)
Similar torrent
Forum Topic Author Size
Зарубежные сериалы Стальная звезда / Жестяная звезда / Tin Star (2019) WEBRip (сезон 2, серии 1-9 из 9) Admin 10.73 GB
Зарубежные сериалы Стальная звезда / Жестяная звезда / Tin Star (2017) WEBRip (сезон 1, серии 1-10 из 10) Admin 6.24 GB
Квесты, я ищу, Поиск предметов, Hidden Object Dark Parables 10: Goldilocks and the Fallen Star CE / Темные предания 10: Златовласка и упавшая звезда КИ [P] [RUS / ENG] (2015) HOPE 865 MB
Xbox 360 | Kinect You're in the Movies / Звезда Кино [RegionFree/RUSSOUND][KINECT] [Xbox360] BiOS 7.3 GB

_________________
[Profile] [PM]
Display posts from previous:    
Reply to topic

The time now is: Today 13:08

All times are GMT + 4 Hours



You cannot post new topics in this forum
You cannot reply to topics in this forum
You cannot edit your posts in this forum
You cannot delete your posts in this forum
You cannot vote in polls in this forum
You cannot attach files in this forum
You can download files in this forum