Мотыльки (2013) WEB-DLRip [H.264/1080p-LQ] (серии 1-4 из 4) скачать торрент

Reply to topic

DL-List and Torrent activity [Update пиров]
Size:  3.64 GB   |    Registered:  17 days   |    Completed:  0 times

Seeder not seen: 16 days

 
 
 
 
 
Author Message

BiOS ®

Longevity: 5 years 1 month

Posts: 2264

Location: East Siberia


Post 30-May-2019 08:11

[Quote]

Мотыльки
«Борьба любви и смерти»
- Производство: Украина / Film.UA
Жанр: драма
Режиссер: Виталий Воробьев
Актеры: Юрий Борисов, Мария Поезжаева, Евгения Лоза, Андрей Казаков, Юрий Назаров, Юлия Рутберг, Артем Ткаченко, Максим Заусалин, Тимур Боканча, Олег Примогенов и др.
Описание:
История любви выпускницы старших классов Али и солдата срочной службы Паши разворачивается на фоне одной из самых масштабных техногенных катастроф XX века — Чернобыльской аварии. Им суждено было встретиться в конце апреля 1986 года в городе Припять. Словно мотыльки, стремящиеся к огню, они летели навстречу своим чувствам, не замечая ничего вокруг.

Возраст: 16+ (зрителям, достигшим 16 лет)
Релиз от: Алехаndr (NNM-Club)
Продолжительность: ~ 00:50:00 серия
Качество видео: WEB-DLRip
Язык озвучки: русский
Видео: AVC/H.264, 1920x1080 (16:9), ~2518 Kbps
Аудио: AC3, 2 ch, 192 Kbps

Mediainfo:

Общее
Формат : Matroska
Версия формата : Version 4 / Version 2
Размер файла : 964 Мбайт
Продолжительность : 49 м. 42 с.
Общий поток : 2712 Кбит/сек
Дата кодирования : UTC 2017-02-19 06:03:23
Программа кодирования : mkvmerge v9.8.0 ('Kuglblids') 64bit
Библиотека кодирования : libebml v1.3.4 + libmatroska v1.4.5 / Lavf57.25.100
Видео
Идентификатор : 1
Формат : AVC
Формат/Информация : Advanced Video Codec
Профиль формата : High@L4
Параметр CABAC формата : Да
Параметр ReFrames формата : 3 кадра
Идентификатор кодека : V_MPEG4/ISO/AVC
Продолжительность : 49 м. 42 с.
Битрейт : 2518 Кбит/сек
Ширина : 1920 пикселей
Высота : 1080 пикселей
Соотношение сторон : 16:9
Режим частоты кадров : Постоянный
Частота кадров : 25,000 кадров/сек
Цветовое пространство : YUV
Субдискретизация насыщенности : 4:2:0
Битовая глубина : 8 бит
Тип развёртки : Прогрессивная
Бит/(Пиксели*Кадры) : 0.049
Размер потока : 895 Мбайт (93%)
Default : Да
Forced : Нет
Аудио
Идентификатор : 2
Формат : AC-3
Формат/Информация : Audio Coding 3
Расширение режима : CM (complete main)
Параметр Endianness формата : Big
Идентификатор кодека : A_AC3
Продолжительность : 49 м. 42 с.
Вид битрейта : Постоянный
Битрейт : 192 Кбит/сек
Каналы : 2 канала
Расположение каналов : Front: L R
Частота : 44,1 КГц
Частота кадров : 28,711 кадров/сек (1536 spf)
Битовая глубина : 16 бит
Метод сжатия : С потерями
Задержка видео : -40 мс.
Размер потока : 68,3 Мбайт (7%)
Default : Да
Forced : Нет
-Скриншоты:


Смотреть онлайн


[trackeroc.org].28426.torrent 
Torrent: Registered   [ 2019-05-30 08:11 ]

Скачать торрент

19 KB

Status: checked
Completed: 3 times
Size: 3.64 GB
 

Admin (30-май-19)
Similar torrent
Forum Topic Author Size
Боевики Дочь волка / Daughter of the Wolf (2019) WEB-DLRip [MVO] [AD] BiOS 1.34 GB
Зарубежные сериалы Горячая зона / Зона заражения / The Hot Zone (2019) WEB-DLRip (сезон 1, серии 1-6 из 6) AMS [AD] BiOS 5.58 GB
Ужасы ,мистика ,триллеры Тёмное чувство / Dark Sense (2019) WEB-DLRip [MVO] [AD] BiOS 1.31 GB
Фантастика ,Фэнтези Русалка / The Siren (2019) WEB-DLRip [MVO] [AD] BiOS 1.31 GB
Квесты, я ищу, Поиск предметов, Hidden Object Silent Scream 2.The Bride / Немой крик 2: Невеста [RUS/ENG] (2013) Admin 286 MB

_________________
[Profile] [PM]
Display posts from previous:    
Reply to topic

The time now is: Today 02:41

All times are GMT + 4 Hours



You cannot post new topics in this forum
You cannot reply to topics in this forum
You cannot edit your posts in this forum
You cannot delete your posts in this forum
You cannot vote in polls in this forum
You cannot attach files in this forum
You can download files in this forum