Не пойман – не вор / Inside Man (2006) BDRip скачать торрент

Reply to topic

DL-List and Torrent activity [Update пиров]
Size:  1.46 GB   |    Registered:  3 months 4 days   |    Completed:  0 times
Seeders:  1  [  0 KB/s  ]   Show peers in full details
 
 
 
 
Author Message

BiOS ®

Longevity: 5 years 9 months

Posts: 2408

Location: Earth


Post 23-Oct-2019 12:19

[Quote]

Не пойман – не вор / Inside Man
«Хочешь ограбить банк - спроси у нас как»
- Производство: США / 40 Acres & a Mule Filmworks, GH Two, Imagine Entertainment, Universal Pictures
Жанр: Боевик, триллер, драма, криминал
Режиссер: Спайк Ли
Актеры: Дензел Вашингтон, Клайв Оуэн, Джоди Фостер, Уиллем Дефо, Кристофер Пламмер, Чиветел Эджиофор, Карлос Андрес Гомез, Ким Директор, Берни Рейчел, Дэвид Браун, Джеймс Рэнсон, Питер Герети, Виктор Количчио, Кассандра Фриман, Питер Фречетт, Джерри Вичи, Варис Ахлувалиа, Родни 'Медведь' Джексон, Мишель ДиБенедетти, Кен Люн
Описание:
История крутого полицейского, детектива Фрезьера, который сталкивается «на узкой дорожке» с хитрым грабителем банков Долтоном. Их противостояние выливается в напряженную драму с захватом заложников. По мере того, как развивается эта игра в «кошки-мышки», на горизонте появляется еще одна загадочная фигура - брокер Мадалина, роль которой в разворачивающихся событиях остается до поры до времени совершенно непонятной. Мадалина вносит еще больше хаоса и нестабильности в и без того чрезвычайно хрупкую ситуацию...

Возраст: 16+ (зрителям, достигшим 16 лет)
Рейтинг MPAA: R (лицам до 17 лет обязательно присутствие взрослого)
Дата мировой премьеры: 16 марта 2006
Дата российской премьеры: 13 апреля 2006
Продолжительность: 02:08:36
Качество видео: BDRip
Перевод: Дублированный
Субтитры: Отсутствуют
Видео: MPEG4, XviD, 720x304 (2.35:1), 23.976 fps, 1 231 Kbps (0.235 bit/pixel)
Аудио: AC-3, 48.0 KHz, 6 ch, 384 Kbps, CBR

MediaInfo:

Общее
Полное имя : Ne pojman ne vor 2006 BDRip.avi
Формат : AVI
Формат/Информация : Audio Video Interleave
Размер файла : 1,46 Гбайт
Продолжительность : 2 ч. 8 м.
Общий поток : 1624 Кбит/сек
Программа кодирования : VirtualDubMod 1.5.10.3 | www.virtualdub-fr.org || (build 2550/release)
Библиотека кодирования : VirtualDubMod build 2550/release
Видео
Идентификатор : 0
Формат : MPEG-4 Visual
Профиль формата : Advanced [email protected]
Параметр BVOP формата : 1
Параметр QPel формата : Нет
Параметр GMC формата : Без точки перехода
Параметр матрицы формата : Выборочная
Идентификатор кодека : XVID
Идентификатор кодека/Подсказка : XviD
Продолжительность : 2 ч. 8 м.
Битрейт : 1231 Кбит/сек
Ширина : 720 пикселей
Высота : 304 пикселя
Соотношение сторон : 2,35:1
Частота кадров : 23,976 кадра/сек
Цветовое пространство : YUV
Субдискретизация насыщенности : 4:2:0
Битовая глубина : 8 бит
Тип развёртки : Прогрессивная
Метод сжатия : С потерями
Бит/(Пиксели*Кадры) : 0.235
Размер потока : 1,11 Гбайт (76%)
Библиотека кодирования : XviD 73
Аудио
Идентификатор : 1
Формат : AC-3
Формат/Информация : Audio Coding 3
Расширение режима : CM (complete main)
Идентификатор кодека : 2000
Продолжительность : 2 ч. 8 м.
Вид битрейта : Постоянный
Битрейт : 384 Кбит/сек
Каналы : 6 каналов
Расположение каналов : Front: L C R, Side: L R, LFE
Частота : 48,0 КГц
Битовая глубина : 16 бит
Метод сжатия : С потерями
Размер потока : 353 Мбайт (24%)
Выравнивание : Разделение по промежуткам
Продолжительность промежутка : 42 мс. (1,00 видеокадр)
Время предзагрузки промежутка : 500 мс.
-Скриншоты:


Смотреть онлайн


[trackeroc.org].29394.torrent 
Torrent: Registered   [ 2019-10-23 12:19 ]

Скачать торрент

15 KB

Status: checked
Completed: 10 times
Size: 1.46 GB
 

Admin (23-окт-19)

_________________
[Profile] [PM]
Display posts from previous:    
Reply to topic

The time now is: Today 02:02

All times are GMT + 4 Hours



You cannot post new topics in this forum
You cannot reply to topics in this forum
You cannot edit your posts in this forum
You cannot delete your posts in this forum
You cannot vote in polls in this forum
You cannot attach files in this forum
You can download files in this forum