Неприятности с обезьянками / Summer of the Monkeys (1998) DVDRip скачать торрент

Reply to topic

DL-List and Torrent activity [Update пиров]
Size:  1.45 GB   |    Registered:  8 days   |    Completed:  0 times

Seeder not seen: Never

 
 
 
 
 
Author Message

BiOS ®

Longevity: 5 years 5 months

Posts: 2337

Location: East Siberia


Post 07-Oct-2019 14:22

[Quote]

Неприятности с обезьянками / Summer of the Monkeys - Производство: Канада / The Edge Productions Corp., Waterfront Pictures
Жанр: драма, семейный, приключения
Режиссер: Майкл Андерсон
Актеры: Майкл Онткин, Лесли Хоуп, Уилфорд Бримли, Кори Севьер, Кэти Стюарт, Дон Фрэнкс, André Thérien, Б.Дж. МакЛеллан, Дэнни Малвихилл, Ким Шранер
Описание:
По одноименной книге Уилсона Роулз "Summer of the Monkeys".
Неподалеку от дома, в поросшем лесом русле высохшей реки, четырнадцатилетний Джей Берри обнаруживает дерево с живущими на нем озорными обезьянами. Никто не верил его рассказу, пока на ферму, где он живет со своими родителями и сестрой-инвалидом, не пришло объявление о вознаграждении за поимку сбежавших шимпанзе.
Джей решил, что вознаграждения за поимку будет достаточно, чтобы осуществить его давнюю мечту о собственном пони. Поймав обезьян, мальчик встает перед выбором: исполнить свое желание или пожертвовать им ради будущего родной сестры…

Возраст: 0+ (для любой зрительской аудитории)
Рейтинг MPAA: G (нет возрастных ограничений)
Продолжительность: 01:37:27
Качество видео: DVDRip
Перевод: Многоголосый профессиональный (Фортуна-фильм)
Субтитры: отсутствуют
Видео: XviD, 640x480 (4:3), ~1740 Kbps
Аудио 1: AC3, 2 ch, 192 Kbps - Русский многоголосый (Фортуна-фильм)
Аудио 2: AC3, 2 ch, 192 Kbps - Английский

MediaInfo:

General
Complete name : Summer Of The Monkeys 1998.avi
Format : AVI
Format/Info : Audio Video Interleave
File size : 1.45 GiB
Duration : 1 h 37 min
Overall bit rate : 2 137 kb/s
Writing application : VirtualDubMod 1.5.10.2 (build 2542/release)
Writing library : VirtualDubMod build 2542/release
Video
ID : 0
Format : MPEG-4 Visual
Format profile : Advanced [email protected]
Format settings : BVOP2 / Custom Matrix
Format settings, BVOP : 2
Format settings, QPel : No
Format settings, GMC : No warppoints
Format settings, Matrix : Custom
Codec ID : XVID
Codec ID/Hint : XviD
Duration : 1 h 37 min
Bit rate : 1 740 kb/s
Width : 640 pixels
Height : 480 pixels
Display aspect ratio : 4:3
Frame rate : 23.976 (24000/1001) FPS
Color space : YUV
Chroma subsampling : 4:2:0
Bit depth : 8 bits
Scan type : Progressive
Compression mode : Lossy
Bits/(Pixel*Frame) : 0.236
Stream size : 1.18 GiB (81%)
Writing library : XviD 65
Audio #1
ID : 1
Format : AC-3
Format/Info : Audio Coding 3
Commercial name : Dolby Digital
Codec ID : 2000
Duration : 1 h 37 min
Bit rate mode : Constant
Bit rate : 192 kb/s
Channel(s) : 2 channels
Channel layout : L R
Sampling rate : 48.0 kHz
Frame rate : 31.250 FPS (1536 SPF)
Compression mode : Lossy
Stream size : 133 MiB (9%)
Alignment : Split across interleaves
Interleave, duration : 42 ms (1.00 video frame)
Interleave, preload duration : 500 ms
Service kind : Complete Main
Audio #2
ID : 2
Format : AC-3
Format/Info : Audio Coding 3
Commercial name : Dolby Digital
Codec ID : 2000
Duration : 1 h 37 min
Bit rate mode : Constant
Bit rate : 192 kb/s
Channel(s) : 2 channels
Channel layout : L R
Sampling rate : 48.0 kHz
Frame rate : 31.250 FPS (1536 SPF)
Compression mode : Lossy
Stream size : 133 MiB (9%)
Alignment : Split across interleaves
Interleave, duration : 42 ms (1.00 video frame)
Interleave, preload duration : 500 ms
Service kind : Complete Main
-Скриншоты:


Смотреть онлайн


[trackeroc.org].29293.torrent 
Torrent: Registered   [ 2019-10-07 14:22 ]

Скачать торрент

15 KB

Status: checked
Completed: 10 times
Size: 1.45 GB
 

Similar torrent
Forum Topic Author Size
Квесты, я ищу, Поиск предметов, Hidden Object The Christmas Spirit. Trouble in Oz / Дух Рождества: Неприятности в Стране Оз. [RUS / ENG] (2017) Admin 1.55 GB

_________________
[Profile] [PM]
Display posts from previous:    
Reply to topic

The time now is: Today 01:20

All times are GMT + 4 Hours



You cannot post new topics in this forum
You cannot reply to topics in this forum
You cannot edit your posts in this forum
You cannot delete your posts in this forum
You cannot vote in polls in this forum
You cannot attach files in this forum
You can download files in this forum