Незнайка на Луне (1997-1999) DVB (серии 1-12 из 12) скачать торрент

Reply to topic

DL-List and Torrent activity [Update пиров]
Size:  4.04 GB   |    Registered:  25 days   |    Completed:  0 times
Seeders:  7  [  155 KB/s  ]   Leechers:  2  [  3 MB/s  ]   Show peers in full details
 
 
 
 
Author Message

BiOS ®

Longevity: 5 years 7 months

Posts: 2374

Location: Earth


Post 16-Nov-2019 15:02

[Quote]

Незнайка на Луне - Производство: Россия / FAF Entertainment
Жанр: Мультфильм, Приключения, Семейный, Фантастика
Режиссер: Юрий Бутырин, Андрей Игнатенко, Александр Люткевич
Персонажи: Венера Рахимова, Кристина Орбакайте, Светлана Степченко, Алексей Борзунов, Клара Румянова, Александр Леньков, Артем Карапетян, Михаил Кононов, Светлана Харлап и др.
Описание:
"Незнайка на Луне" - грандиозный анимационный проект с участием звездных голосов российской эстрады Кристины Орбакайте в роли Звездочки и Валерия Меладзе с песенным хитом, как лейтмотивом фильма.
В очаровательной детской фантастике с захватывающим сюжетом, юмором и добротой за развлекательным жанром кроется глубокий смысл. Наряду с приключениями ребенка ждут жизненно важные знания об экономике, физике и астрономии. Веселая и поучительная история еще раз напомнит о вечных истинах, о том, что добро всегда побеждает зло.
Это интересная и поучительная сказка не оставит никого равнодушным и доставит огромное удовольствие от просмотра.

Продолжительность: серия ~00:14:00
Качество видео: DVB
Видео: MPEG-2, [email protected], ~3 401 Kbps
Аудио: MP2, 2 ch, 192 Kbps

Список серий:

1. Загадка Лунного Камня.
2. Грандиозный замысел Знайки.
3. Незнайка и Пончик летят на Луну.
4. Первый день на Луне.
5. Звёздочка.
6. Дорогие друзья.
7. Акционерное общество гигантских растений.
8. Большой бредлам.
9. Незнайка ищет работу.
10. Куда исчезла ракета.
11. Знайка спешит на помощь.
12. Дорога домой.

Дополнительная информация по релизу:

Серии 1-9 записаны с канала "Карусель", серии 10-12 - с канала "Мульт"

Mediainfo:

Код:
Общее
Формат                                   : MPEG-PS
Размер файла                             : 370 Мбайт
Продолжительность                        : 14 м.
Режим общего битрейта                    : Переменный
Общий поток                              : 3666 Кбит/сек
Видео
Идентификатор                            : 224 (0xE0)
Формат                                   : MPEG Video
Версия формата                           : Version 2
Профиль формата                          : [email protected]
Параметр BVOP формата                    : Да
Параметр матрицы формата                 : Выборочная
Параметр GOP формата                     : M=3, N=12
Format_Settings_PictureStructure         : Frame
Продолжительность                        : 14 м.
Вид битрейта                             : Переменный
Битрейт                                  : 3401 Кбит/сек
Максимальный битрейт                     : 5000 Кбит/сек
Ширина                                   : 720 пикселей
Высота                                   : 576 пикселей
Соотношение сторон                       : 4:3
Частота кадров                           : 25,000 кадров/сек
Стандарт вещания                         : PAL
Цветовое пространство                    : YUV
Субдискретизация насыщенности            : 4:2:0
Битовая глубина                          : 8 бит
Тип развёртки                            : Чересстрочная
Порядок развёртки                        : Верхнее поле первое
Метод сжатия                             : С потерями
Бит/(Пиксели*Кадры)                      : 0.328
Временной код первого кадра              : 00:00:00:00
Оригинал временного кода                 : Group of pictures header
Размер потока                            : 343 Мбайт (93%)
Аудио
Идентификатор                            : 192 (0xC0)
Формат                                   : MPEG Audio
Версия формата                           : Version 1
Профиль формата                          : Layer 2
Продолжительность                        : 14 м.
Вид битрейта                             : Постоянный
Битрейт                                  : 192 Кбит/сек
Каналы                                   : 2 канала
Частота                                  : 48,0 КГц
Метод сжатия                             : С потерями
Размер потока                            : 19,4 Мбайт (5%)
-Скриншоты:


Смотреть онлайн


[trackeroc.org].29506.torrent 
 SILVER TORRENT! DOWNLOAD TRAFFIC PARTIALLY CONSIDERED! 
Torrent: Registered   [ 2019-11-16 15:02 ]

Скачать торрент

12 KB

Status: checked
Completed: 10 times
Size: 4.04 GB
 

Admin (16-ноя-19)
Similar torrent
Forum Topic Author Size
Комедии Ты бывала на луне? / Sei mai stata sulla luna? (2015) HDRip Admin 1.47 GB

_________________
[Profile] [PM]
Display posts from previous:    
Reply to topic

The time now is: Today 02:55

All times are GMT + 4 Hours



You cannot post new topics in this forum
You cannot reply to topics in this forum
You cannot edit your posts in this forum
You cannot delete your posts in this forum
You cannot vote in polls in this forum
You cannot attach files in this forum
You can download files in this forum