Noize MC - XV Live / NO15E MC - XV (2019) WEB-DL [H.264/1080p-LQ] скачать торрент

Reply to topic

DL-List and Torrent activity [Update пиров]
Size:  3.1 GB   |    Registered:  1 month 3 days   |    Completed:  0 times
Seeders:  4  [  0 KB/s  ]   Show peers in full details
 
 
 
 
Author Message

BiOS ®

Longevity: 5 years 6 months

Posts: 2341

Location: Earth


Post 09-Oct-2019 19:07

[Quote]

Noize MC - XV Live / NO15E MC - XV - Производство: Krok Films - Creative Band of Georgi Biziuk
Жанр: Rap, Hip-Hop, Rock
Режиссер: Георгий Бизюк
Исполнитель: Группа «Noize MC»
Треклист:
00:01:11 За закрытой дверью
00:05:03 Make Some Noize
00:09:05 Песня Для Радио
00:13:11 Люди с автоматами (feat. монеточка)
00:17:05 Чайлдфри (feat. монеточка)
00:22:00 Коррозия хип-хопа
00:29:19 Бассейн
00:34:46 Вселенная бесконечна?
00:38:21 Следы на спине
00:41:50 На Марсе классно!
00:46:52 Иордан
00:51:50 Жвачка
00:56:13 В темноте
01:00:57 Yes Future!
01:04:20 Устрой дестрой

Продолжение треклиста:

01:18:45 Танцi feat Иван Дорн
01:23:00 Голос & Cтруны
01:27:42 С Нами feat. Leila
01:31:26 Без нас feat. Leila
01:38:40 Питерские крыши
01:43:23 Моё море
01:46:32 Грабли
01:51:41 Выдыхай
01:55:36 Ругань из-за стены
02:00:02 Антенны
02:03:52 Из Окна
02:09:10 Марафон
Продолжительность: 02:16:18
Качество видео: WEB-DL
Субтитры: отсутствуют
Видео: AVC/H.264, 1920x1080, ~3120 Kbps
Аудио: AAC, 2 ch, 128 Kbps

Дополнитеольная информация:

Группа «Noize MC»
Гитара, вокал –Иван Алексеев
Бас-гитара – Александр Кислинский
DJ, beatbox, перкуссия – DJ Stufford
Ударные – Владимир Зиновьев
Звукорежиссер – Роман Кравченко
Техник – Андрей Шинкевич
Тур-менеджер – Валерий Юнусов
Специальные гости — Иван Дорн, Монеточка, Leila
Продюсер – Елена Савельева
Менеджмент – Дмитрий Пайкин, Елизавета Коровина
Стиль, художественное решение — Леонид Алексеев
Технический директор – Давид Казарян
Постановка света - Иван Виноградов, Илья Абраменко
Дизайн — Михаил Руль
Мерчендайзинг — Алекс Мельцов
Партнеры - «Line up group»:
Никита Новицкий
Тимур Фейсханов
Кристина Донварь
Карина Фазуллина
Елизавета Старостина
Алексей Кузовлев
Вася Отменников
Костя Зикратый
Видеосъемка KROK FILMS
Георгий Бизюк – режиссер
Евгений Соломонов – оператор-постановщик, монтажер
Роман Жигалов – оператор
Карина Смолякова – оператор
Роман Адасько – оператор
Алексей Максимов - оператор
Александр Стриевич – оператор
Евгений Пилипенко – оператор
Артем Мельников – оператор
Константин Серегин – оператор
Александр Нурдинов – оператор
Андрей Бизюк – оператор
Илья Копытов – оператор
Видео на экране — SUPERVISUALS TEAM
Александр Рябцун / VJ Dzhezus
Рустам Юсупов
Наталья Мухаметдинова
CG Artists
Глеб Репин
Рустам Юсупов
Артем Андросов
Техническая поддержка
Звук - Агенство «Линия Звука»
Экраны - StarScreens
Свет -Realtime Production, Laserkinetics, Light Logics
Сцена - DB Power, Трансформ-ТФ
Спецэффекты - PresetFX
Подвесы - RRC-RIGGING
Кулисы - Компания Одень Сцену
Кабуки - Stage Effects
Фильм снят на технику Sony
Александр Красовицкий
Иван Сивушкин
Благодарим за помощь в организации съемок
Благодарим за помощь компанию ООО «Юниверсал Мьюзик»
Дмитрий Коннов
Максим Власов
Сергей Красненко
Екатерина Колмакова

MediaInfo:

Общее
Полное имя : Noize MC — XV (LIVE).mp4
Формат : MPEG-4
Профиль формата : Base Media
Идентификатор кодека : isom (isom/iso2/avc1/mp41)
Размер файла : 3,10 Гбайт
Продолжительность : 2 ч. 16 м.
Общий поток : 3255 Кбит/сек
Программа кодирования : Lavf58.27.103
Видео
Идентификатор : 1
Формат : AVC
Формат/Информация : Advanced Video Codec
Профиль формата : [email protected]
Настройки формата : CABAC / 3 Ref Frames
Параметр CABAC формата : Да
Параметр RefFrames формата : 3 кадра
Идентификатор кодека : avc1
Идентификатор кодека/Информация : Advanced Video Coding
Продолжительность : 2 ч. 16 м.
Битрейт : 3120 Кбит/сек
Ширина : 1920 пикселей
Высота : 1080 пикселей
Соотношение сторон : 16:9
Режим частоты кадров : Постоянный
Частота кадров : 25,000 кадров/сек
Цветовое пространство : YUV
Субдискретизация насыщенности : 4:2:0
Битовая глубина : 8 бит
Тип развёртки : Прогрессивная
Бит/(Пиксели*Кадры) : 0.060
Размер потока : 2,97 Гбайт (96%)
Заголовок : ISO Media file produced by Google Inc. Created on: 05/04/2019.
Библиотека кодирования : x264 core 155 r2901 7d0ff22
Цветовой диапазон : Limited
Основные цвета : BT.709
Характеристики трансфера : BT.709
Коэффициенты матрицы : BT.709
Codec configuration box : avcC
Аудио
Идентификатор : 2
Формат : AAC LC
Формат/Информация : Advanced Audio Codec Low Complexity
Идентификатор кодека : mp4a-40-2
Продолжительность : 2 ч. 16 м.
Вид битрейта : Постоянный
Битрейт : 128 Кбит/сек
Каналы : 2 канала
ChannelLayout : L R
Частота : 44,1 КГц
Частота кадров : 43,066 кадра/сек (1024 SPF)
Метод сжатия : С потерями
Размер потока : 125 Мбайт (4%)
Заголовок : ISO Media file produced by Google Inc. Created on: 05/04/2019.
Default : Да
AlternateGroup/String : 1
-Скриншоты:


[trackeroc.org].29307.torrent 
Torrent: Registered   [ 2019-10-09 19:07 ]

Скачать торрент

63 KB

Status: checked
Completed: 10 times
Size: 3.1 GB
 

Similar torrent
Forum Topic Author Size
Отечественный Rap / Hip-hop Noize MC - Трекография (2000-2013) [32 - 320 kbps] MP3 Матвей 3.79 GB

_________________
[Profile] [PM]
Display posts from previous:    
Reply to topic

The time now is: Today 22:24

All times are GMT + 4 Hours



You cannot post new topics in this forum
You cannot reply to topics in this forum
You cannot edit your posts in this forum
You cannot delete your posts in this forum
You cannot vote in polls in this forum
You cannot attach files in this forum
You can download files in this forum