Охота на единорога (1989) DVDRip скачать торрент

Reply to topic

DL-List and Torrent activity [Update пиров]
Size:  1.46 GB   |    Registered:  8 days   |    Completed:  0 times
Seeders:  3  [  0 KB/s  ]   Show peers in full details
 
 
 
 
Author Message

BiOS ®

Longevity: 5 years 4 months

Posts: 2279

Location: East Siberia


Post 08-Sep-2019 21:01

[Quote]

Охота на единорога- Производство: СССР / Свердловская киностудия
Жанр: Драма, военный, экранизация
Режиссер: Владимир Лаптев
Актеры: Сергей Быстрицкий, Виталий Зикора, Виктор Соловьёв, Владимир Завьялов, Юрий Лазарев, Виталий Яковлев, Гедиминас Гирдвайнис
Описание:
Начало войны. Выпускник летного училища Тесленко летит ведомым у командира эскадрильи Грабаря. Их сбили - и Тесленко оказался в лагере при немецком аэродроме, где советские летчики на самолетах с ограниченным запасом горючего, служили живыми мишенями для немецких курсантов летной школы. Здесь опять состоялась встреча Тесленко и Грабаря, который сумел в этих условиях организовать для советских летчиков тактическую школу воздушных боев. Разработав план побега, Грабарь дал шанс Тесленко выбраться на свободу. Однако, добравшись до своих, герой был арестован и осужден по 58-й статье.

Возраст: 16+ (зрителям, достигшим 16 лет)
Продолжительность: 01:14:32
Качество видео: DVDRip
Видео: MPEG4, XviD, 720x432 (1.667), 25.000 fps, 2 595 Kbps (0.334 bit/pixel)
Аудио: AC-3, 48.0 KHz, 2 ch, 192 Kbps, CBR

MediaInfo:

Формат                                   : AVI
Формат/Информация : Audio Video Interleave
Размер файла : 1,46 Гбайт
Продолжительность : 1 ч. 14 м.
Общий поток : 2796 Кбит/сек
Программа кодирования : VirtualDubMod 1.5.10.3 | www.virtualdub-fr.org || (build 2550/release)
Библиотека кодирования : VirtualDubMod build 2550/release
Видео
Идентификатор : 0
Формат : MPEG-4 Visual
Профиль формата : Advanced [email protected]
Настройки формата : BVOP1 / Custom Matrix
Параметр BVOP формата : 1
Параметр QPel формата : Нет
Параметр GMC формата : Без точки перехода
Параметр матрицы формата : Выборочная
Идентификатор кодека : XVID
Идентификатор кодека/Подсказка : XviD
Продолжительность : 1 ч. 14 м.
Битрейт : 2595 Кбит/сек
Ширина : 720 пикселей
Высота : 432 пикселя
Соотношение сторон : 5:3
Частота кадров : 25,000 кадров/сек
Цветовое пространство : YUV
Субдискретизация насыщенности : 4:2:0
Битовая глубина : 8 бит
Тип развёртки : Прогрессивная
Метод сжатия : С потерями
Бит/(Пиксели*Кадры) : 0.334
Размер потока : 1,35 Гбайт (93%)
Библиотека кодирования : XviD 1.2.1 (UTC 2008-12-04)
Аудио
Идентификатор : 1
Формат : AC-3
Формат/Информация : Audio Coding 3
Идентификатор кодека : 2000
Продолжительность : 1 ч. 14 м.
Вид битрейта : Постоянный
Битрейт : 192 Кбит/сек
Каналы : 2 канала
Расположение каналов : Front: L R
Частота : 48,0 КГц
Частота кадров : 31,250 кадров/сек (1536 SPF)
Битовая глубина : 16 бит
Метод сжатия : С потерями
Размер потока : 102 Мбайт (7%)
Выравнивание : Разделение по промежуткам
Продолжительность промежутка : 40 мс. (1,00 видеокадр)
Время предзагрузки промежутка : 500 мс.
ServiceKind/String : Complete Main
-Скриншоты:


Смотреть онлайн


[trackeroc.org].29066.torrent 
 GOLD TORRENT! DOWNLOAD TRAFFIC DOES NOT CONSIDER! 
Torrent: Registered   [ 2019-09-08 21:01 ]

Скачать торрент

15 KB

Status: checked
Completed: 16 times
Size: 1.46 GB
 

Admin (08-сен-19), Angel (09-сен-19)
Similar torrent
Forum Topic Author Size
RPG The Witcher 3: Wild Hunt / Ведьмак 3: Дикая Охота (2015) [Ru/Multi] (1.32/dlc) License GOG [Game of the Year Edition] BiOS 66.8 GB
Квесты, я ищу, Поиск предметов, Hidden Object Saga of the Nine Worlds 3: The Hunt / Сага о Девяти Мирах 3: Охота [RUS / ENG] (2018) Admin 1.03 GB
Боевики Охота на воров / Den of Thieves (2018) WEB-DLRip Admin 2.18 GB
Зарубежные сериалы Охота на Унабомбера / Manhunt: Unabomber [сезон 1 серии 1-8 из 8] (2017) Admin 3.38 GB

_________________
[Profile] [PM]
Display posts from previous:    
Reply to topic

The time now is: Today 15:04

All times are GMT + 4 Hours



You cannot post new topics in this forum
You cannot reply to topics in this forum
You cannot edit your posts in this forum
You cannot delete your posts in this forum
You cannot vote in polls in this forum
You cannot attach files in this forum
You can download files in this forum