Охотники / Hunters (2020) WEBRip (сезон 1, серии 1-10 из 10) Gears Media скачать торрент

Reply to topic

DL-List and Torrent activity [Update пиров]
Size:  7.4 GB   |    Registered:  1 month 10 days   |    Completed:  0 times

Seeder not seen: Never

 
 
 
 
 
Author Message

Admin ®

Longevity: 5 years 11 months

Posts: 9300

Location: Скачать торрент


Post 23-Feb-2020 17:41

[Quote]

Охотники / Hunters- Производство: США / Big Indie Pictures, Monkeypaw Prodctions, Sonar Entertainment
Жанр: драма
Режиссер: Нельсон МакКормик, Уэйн Йип, Альфонсо Гомес-Рехон
Актеры: Аль Пачино, Логан Лерман, Джеррика Хинтон, Лена Олин, Сол Рубинек, Кэрол Кейн, Джош Рэднор, Грег Остин, Тиффани Бун, Луис Одзава Чжанцзянь и др.
Описание:
Группа американских граждан в 1970-е занялась выслеживанием нацистов, проживающих на территории США. Им удалось найти и уничтожить несколько сотен человек, стараниями американского правительства избежавших наказания после Второй мировой войны.

Дата мировой премьеры: 21 февраля 2020
Релиз от: Gears Media
Продолжительность: ~01:30:00 серия
Качество видео: WEBRip
Перевод: Двухголосый любительский (Gears Media)
Реклама: Присутствует реклама
Видео: XviD, 720x400, ~1500 Kbps
Аудио: MP3, 2 ch, 128 Kbps

MediaInfo:

Код:
General
Complete name : Hunters S01E01 (2020) WEBRip [Gears Media].avi
Format : AVI
Format/Info : Audio Video Interleave
File size : 1.03 GiB
Duration : 1 h 30 min
Overall bit rate : 1 629 kb/s
Writing application : Lavf58.29.100
Video #0
ID : 0
Format : MPEG-4 Visual
Format profile : Advanced [email protected]
Format settings : BVOP1
Format settings, BVOP : 1
Format settings, QPel : No
Format settings, GMC : No warppoints
Format settings, Matrix : Default (H.263)
Codec ID : XVID
Codec ID/Hint : XviD
Duration : 1 h 30 min
Bit rate : 1 427 kb/s
Width : 720 pixels
Height : 400 pixels
Display aspect ratio : 16:9
Frame rate : 23.976 (24000/1001) FPS
Color space : YUV
Chroma subsampling : 4:2:0
Bit depth : 8 bits
Scan type : Progressive
Compression mode : Lossy
Bits/(Pixel*Frame) : 0.207
Stream size : 927 MiB (88%)
Writing library : XviD 67
Audio #1
ID : 1
Format : MPEG Audio
Format version : Version 1
Format profile : Layer 3
Format settings : Joint stereo / MS Stereo
Codec ID : 55
Codec ID/Hint : MP3
Duration : 1 h 30 min
Bit rate mode : Constant
Bit rate : 128 kb/s
Channel(s) : 2 channels
Sampling rate : 48.0 kHz
Compression mode : Lossy
Stream size : 83.2 MiB (8%)
Alignment : Aligned on interleaves
Writing library : LAME3.100
-Скриншоты:


Смотреть онлайн


[trackeroc.org].30008.torrent 
Torrent: Registered   [ 2020-02-23 17:42 ]

Скачать торрент

39 KB

Status: checked
Completed: 14 times
Size: 7.4 GB
 

Similar torrent
Forum Topic Author Size
RPG, ролевые игры Demonheart: Hunters (2020) (ENG) Admin 810 MB
Квесты, я ищу, Поиск предметов, Hidden Object Mystery Trackers17:The Secret of Watch Hill / Охотники за тайнами17:Тайна Дозорного Холма [RUS / ENG] (2019) Admin 819 MB
Квесты, я ищу, Поиск предметов, Hidden Object Mystery Trackers 15: Darkwater Bay / Охотники за тайнами 15. Бухта темных вод [RUS / ENG] (2018) Admin 857 MB
Strategy, Стратегии Fate Hunters v1.1 (2019) (ENG+RUS) Admin 75 MB
[Profile] [PM]
Display posts from previous:    
Reply to topic

The time now is: Today 02:37

All times are GMT + 4 Hours



You cannot post new topics in this forum
You cannot reply to topics in this forum
You cannot edit your posts in this forum
You cannot delete your posts in this forum
You cannot vote in polls in this forum
You cannot attach files in this forum
You can download files in this forum