Оно 2 / It Chapter Two (2019) CAMRip [H.264/720p-LQ] [AD] скачать торрент

Reply to topic

DL-List and Torrent activity [Update пиров]
Size:  4.63 GB   |    Registered:  7 days   |    Completed:  0 times
Seeders:  9  [  1 MB/s  ]   Leechers:  1  [  8 MB/s  ]   Show peers in full details
 
 
 
 
Author Message

BiOS ®

Longevity: 5 years 4 months

Posts: 2279

Location: East Siberia


Post 10-Sep-2019 03:02

[Quote]

Оно 2 / It Chapter Two
«You'll Float Again»
- Производство: Канада, США / KatzSmith Productions, Lin Pictures, New Line Cinema
Жанр: Ужасы
Режиссер: Андрес Мускетти
Актеры: Джессика Честейн, Джеймс МакЭвой, Билл Хэйдер, Айзая Мустафа, Джей Райан, Джеймс Рэнсон, Энди Бин, Билл Скарсгард, Джейден Мартелл, Уайатт Олефф
Описание:
Проходит 27 лет после первой встречи ребят с демоническим Пеннивайзом. Они уже выросли, и у каждого своя жизнь. Но неожиданно их спокойное существование нарушает странный телефонный звонок, который заставляет их вновь собраться вместе.

Возраст: 18+ (зрителям, достигшим 18 лет. запрещено для детей)
Рейтинг MPAA: R (лицам до 17 лет обязательно присутствие взрослого)
Дата мировой премьеры: 26 августа 2019
Дата премьеры в России: 5 сентября 2019

Продолжительность: 02:43:59
Качество видео: CAMRip
Перевод: Дублированный
Субтитры: Отсутствуют
Реклама: Присутствует баннер.
Видео: AVC/H.264, 1280x536, ~3576 Kbps
Аудио: AC-3, 2 ch, 384 Kbps

MediaInfo:

Общее
Формат : Matroska
Версия формата : Version 2
Размер файла : 4,63 Гбайт
Продолжительность : 2 ч. 43 м.
Режим общего битрейта : Переменный
Общий поток : 4040 Кбит/сек
Программа кодирования : libmatroska 1.4.1
Библиотека кодирования : SolveigMM Matroska Muxer Version 1.0.1502.31
Видео
Идентификатор : 1
Формат : AVC
Формат/Информация : Advanced Video Codec
Профиль формата : [email protected]
Настройки формата : CABAC / 4 Ref Frames
Параметр CABAC формата : Да
Параметр RefFrames формата : 4 кадра
Идентификатор кодека : V_MPEG4/ISO/AVC
Продолжительность : 2 ч. 43 м.
Вид битрейта : Переменный
Битрейт : 3576 Кбит/сек
Максимальный битрейт : 4000 Кбит/сек
Ширина : 1280 пикселей
Высота : 536 пикселей
Соотношение сторон : 2,40:1
Режим частоты кадров : Постоянный
Частота кадров : 23,976 (24000/1001) кадра/сек
Стандарт вещания : Component
Цветовое пространство : YUV
Субдискретизация насыщенности : 4:2:0
Битовая глубина : 8 бит
Тип развёртки : Прогрессивная
Бит/(Пиксели*Кадры) : 0.217
Размер потока : 4,10 Гбайт (89%)
Default : Нет
Forced : Нет
Цветовой диапазон : Limited
Основные цвета : BT.709
Характеристики трансфера : BT.709
Коэффициенты матрицы : BT.709
Аудио
Идентификатор : 2
Формат : AC-3
Формат/Информация : Audio Coding 3
Коммерческое название : Dolby Digital
Идентификатор кодека : A_AC3
Продолжительность : 2 ч. 43 м.
Вид битрейта : Постоянный
Битрейт : 384 Кбит/сек
Каналы : 2 канала
Channel layout : L R
Частота : 48,0 КГц
Частота кадров : 31,250 кадров/сек (1536 SPF)
Битовая глубина : 16 бит
Метод сжатия : С потерями
Размер потока : 450 Мбайт (10%)
Язык : Russian
ServiceKind/String : Complete Main
Default : Нет
Forced : Нет
-Скриншоты:


Смотреть онлайн


[trackeroc.org].29079.torrent 
Torrent: Registered   [ 2019-09-10 03:02 ]

Скачать торрент

24 KB

Status: T temporary
Completed: 23 times
Size: 4.63 GB
 

Angel (10-сен-19), Admin (10-сен-19)

_________________
[Profile] [PM]
Display posts from previous:    
Reply to topic

The time now is: Today 14:52

All times are GMT + 4 Hours



You cannot post new topics in this forum
You cannot reply to topics in this forum
You cannot edit your posts in this forum
You cannot delete your posts in this forum
You cannot vote in polls in this forum
You cannot attach files in this forum
You can download files in this forum