Опасное задание / Beast of Burden (2018) BDRip [H.264] скачать торрент

Reply to topic

DL-List and Torrent activity [Update пиров]
Size:  1.63 GB   |    Registered:  1 year 4 months   |    Completed:  3 times

Seeder not seen: 7 months 26 days

 
 
 
 
 
Author Message

BiOS ®

Longevity: 5 years 9 months

Posts: 2408

Location: Earth


Post 19-Sep-2018 20:43

[Quote]

Опасное задание / Beast of Burden «Lines are meant to be crossed»- Производство: США, Aloe Entertainment
Жанр: Боевик, триллер, драма, криминал
Режиссер: Йеспер Гансландт
Продюсер: Мэри Л. Алоэ, Майкл С. Даймонд, Джефф Эллиотт
Актеры: Дэниэл Рэдклифф, Грэйс Гаммер, Пабло Шрайбер, Роберт Уиздом, Дэвид Джозеф Мартинес, Марк Смит, Шон Гловер
Описание:
У пилота Шона Хаггерти есть всего час, чтобы доставить незаконный груз наркокартеля, убедить киллера и агента из Управления по борьбе с наркотиками, что всё идёт по плану, и убедиться, что его жена выживет.
Возраст: 18+ (зрителям, достигшим 18 лет. запрещено для детей)
Рейтинг MPAA: R (лицам до 17 лет обязательно присутствие взрослого)
Дата мировой премьеры: 23 февраля 2018
Дата российской премьеры: 16 августа 2018, «Кинологистика»
Цифровой релиз: 10 сентября 2018, «НД Плэй»
Продолжительность: 01:29:41
Качество видео: BDRip
Перевод: Дублированный (iTunes)
Субтитры: Русские, английские
Видео: AVC/H.264, 1024x426, ~1771 Kbps
Аудио 1: AC3, 6 ch, 384 Kbps - Русский
Аудио 2: AC3, 6 ch, 448 Kbps - Английский

Mediainfo:

General
Format : Matroska
Format version : Version 2
File size : 1.63 GiB
Duration : 1 h 29 min
Overall bit rate : 2 602 kb/s
Movie name : Beast of Burden 2018 from ExKinoRay
Encoded date : UTC 2018-09-18 17:08:50
Writing application : mkvmerge v5.6.0 ('Kenya Kane') built on May 27 2012 16:44:04
Writing library : libebml v1.2.3 + libmatroska v1.3.0
Video
ID : 1
Format : AVC
Format/Info : Advanced Video Codec
Format profile : [email protected]
Format settings : CABAC / 14 Ref Frames
Format settings, CABAC : Yes
Format settings, RefFrames : 14 frames
Codec ID : V_MPEG4/ISO/AVC
Duration : 1 h 29 min
Bit rate : 1 771 kb/s
Width : 1 024 pixels
Height : 426 pixels
Display aspect ratio : 2.40:1
Frame rate mode : Constant
Frame rate : 23.976 (23976/1000) FPS
Color space : YUV
Chroma subsampling : 4:2:0
Bit depth : 8 bits
Scan type : Progressive
Bits/(Pixel*Frame) : 0.169
Stream size : 1.08 GiB (66%)
Title : Enigma
Writing library : x264 core 152 r2851 ba24899
Encoding settings : cabac=1 / ref=14 / deblock=1:-2:-2 / analyse=0x3:0x113 / me=umh / subme=10 / psy=1 / psy_rd=1.00:0.05 / mixed_ref=1 / me_range=32 / chroma_me=1 / trellis=2 / 8x8dct=1 / cqm=0 / deadzone=21,11 / fast_pskip=0 / chroma_qp_offset=-3 / threads=12 / lookahead_threads=3 / sliced_threads=0 / nr=0 / decimate=0 / interlaced=0 / bluray_compat=0 / constrained_intra=0 / bframes=12 / b_pyramid=2 / b_adapt=2 / b_bias=0 / direct=3 / weightb=1 / open_gop=0 / weightp=2 / keyint=240 / keyint_min=23 / scenecut=40 / intra_refresh=0 / rc=2pass / mbtree=0 / bitrate=1771 / ratetol=1.0 / qcomp=0.60 / qpmin=0 / qpmax=51 / qpstep=4 / cplxblur=20.0 / qblur=0.5 / ip_ratio=1.40 / pb_ratio=1.30 / aq=3:0.80
Language : English
Default : Yes
Forced : No
Color range : Limited
Color primaries : BT.709
Transfer characteristics : BT.709
Matrix coefficients : BT.709
Audio #1
ID : 2
Format : AC-3
Format/Info : Audio Coding 3
Commercial name : Dolby Digital
Codec ID : A_AC3
Duration : 1 h 29 min
Bit rate mode : Constant
Bit rate : 384 kb/s
Channel(s) : 6 channels
Channel layout : L R C LFE Ls Rs
Sampling rate : 48.0 kHz
Frame rate : 31.250 FPS (1536 SPF)
Bit depth : 16 bits
Compression mode : Lossy
Stream size : 246 MiB (15%)
Title : Dub (iTunes)
Language : Russian
Service kind : Complete Main
Default : Yes
Forced : No
Audio #2
ID : 3
Format : AC-3
Format/Info : Audio Coding 3
Commercial name : Dolby Digital
Codec ID : A_AC3
Duration : 1 h 29 min
Bit rate mode : Constant
Bit rate : 448 kb/s
Channel(s) : 6 channels
Channel layout : L R C LFE Ls Rs
Sampling rate : 48.0 kHz
Frame rate : 31.250 FPS (1536 SPF)
Bit depth : 16 bits
Compression mode : Lossy
Stream size : 287 MiB (17%)
Language : English
Service kind : Complete Main
Default : No
Forced : No
Text #1
ID : 4
Format : UTF-8
Codec ID : S_TEXT/UTF8
Codec ID/Info : UTF-8 Plain Text
Title : Full
Language : Russian
Default : No
Forced : No
Text #2
ID : 5
Format : UTF-8
Codec ID : S_TEXT/UTF8
Codec ID/Info : UTF-8 Plain Text
Language : English
Default : No
Forced : No
Text #3
ID : 6
Format : UTF-8
Codec ID : S_TEXT/UTF8
Codec ID/Info : UTF-8 Plain Text
Title : SDH
Language : English
Default : No
Forced : No
Menu
00:00:00.000 : en:00:00:00.000
00:05:07.724 : en:00:05:07.724
00:11:01.619 : en:00:11:01.619
00:17:11.072 : en:00:17:11.072
00:23:40.669 : en:00:23:40.669
00:28:29.958 : en:00:28:29.958
00:31:55.372 : en:00:31:55.372
00:38:42.862 : en:00:38:42.862
00:46:27.243 : en:00:46:27.243
00:50:46.126 : en:00:50:46.126
00:56:37.311 : en:00:56:37.311
01:03:38.481 : en:01:03:38.481
01:09:49.227 : en:01:09:49.227
01:15:32.653 : en:01:15:32.653
01:22:57.472 : en:01:22:57.472
01:25:16.069 : en:01:25:16.069
-Скриншоты:


Смотреть онлайн


[trackeroc.ru].26350.torrent 
Torrent: Registered   [ 2018-09-19 20:43 ]

Скачать торрент

17 KB

Status: checked
Completed: 64 times
Size: 1.63 GB
 

Admin (20-сен-18)
Similar torrent
Forum Topic Author Size
Приключения Опасное погружение / Pressure (2015) BDRip Admin 1.46 GB

_________________
[Profile] [PM]
Display posts from previous:    
Reply to topic

The time now is: Today 01:09

All times are GMT + 4 Hours



You cannot post new topics in this forum
You cannot reply to topics in this forum
You cannot edit your posts in this forum
You cannot delete your posts in this forum
You cannot vote in polls in this forum
You cannot attach files in this forum
You can download files in this forum