Парк Юрского периода / Jurassic Park (1993-2018) BDRip [Коллекция] скачать торрент

Reply to topic

DL-List and Torrent activity [Update пиров]
Size:  7.37 GB   |    Registered:  18 days   |    Completed:  0 times
Seeders:  1  [  54 KB/s  ]   Show peers in full details
 
 
 
 
Author Message

BiOS ®

Longevity: 5 years 6 months

Posts: 2341

Location: Earth


Post 25-Oct-2019 00:51

[Quote]

Парк Юрского периода / Jurassic Park - Производство: США / Universal Pictures, Amblin Entertainment
Жанр: приключения, фантастика, семейный
Режиссер: Стивена Спилберг, Джо Джонстон, Колин Треворроу, Хуана Антонио Байоны
Актеры: Сэм Нилл, Уильям Х. Мэйси, Теа Леони, Алессандро Нивола, Тревор Морган, Майкл Джитер, Джон Дил, Брюс А. Янг, Лора Дерн, Тейлор Николс, Марк Харелик, Хулио Оскар Мечосо, Блейк Майкл Брайан, Сара Даниэль Мэдисон, Линда Пак, Соня Джексон, Брюс Френч, Бернард Зилинскас, Рона Бенсон, Фрэнк Клем
Описание:
Франшиза состоит из 5 фильмов, которые выпускаются с 1993 года. Всё началось с того, что в 1990 году компания Universal Studios купила права на все романы Майкла Крайтона. Роман был успешным из-за адаптации, которую выпустили компании Universal Studios и Amblin Entertainment в 1993 году — «Парк юрского периода». Фильм получил несколько наград «Оскар» в номинациях «Лучшие визуальные эффекты»...
Великолепная, просто фантастическая реалистичность динозавров, а также отчасти угаданные многие из образов доисторических ящеров, вносят дополнотельные баллы в общую винажность серии фильмов.

Возраст: 12+ (зрителям, достигшим 12 лет)
Рейтинг MPAA: PG-13 (детям до 13 лет просмотр нежелателен)
Продолжительность: 02:06:42 / 02:08:40 / 01:32:20 / 02:04:21 / 02:08:17
Качество видео: HDRip
Перевод: Дублированный, многоголосый закадровый
Субтитры: Отсутствуют
Видео: Xvid, 720x384, 704x384, 720х360, 720х304, ~1418-1860 Kbps
Аудио: AC3, 2/6 ch, 192, 384, 448 kbps, Русский (DUB)

MediaInfo:

Код:
Общее
Полное имя                               : 1 Парк Юрского периода Jurassic Park 1993 HDRip.avi
Формат                                   : AVI
Формат/Информация                        : Audio Video Interleave
Размер файла                             : 1,46 Гбайт
Продолжительность                        : 2 ч. 6 м.
Общий поток                              : 1652 Кбит/сек
Программа кодирования                    : VirtualDubMod 1.5.10.3 | www.virtualdub-fr.org || (build 2550/release)
Библиотека кодирования                   : VirtualDubMod build 2550/release
Видео
Идентификатор                            : 0
Формат                                   : MPEG-4 Visual
Профиль формата                          : Advanced [email protected]
Параметр BVOP формата                    : 1
Параметр QPel формата                    : Нет
Параметр GMC формата                     : Без точки перехода
Параметр матрицы формата                 : Выборочная
Идентификатор кодека                     : XVID
Идентификатор кодека/Подсказка           : XviD
Продолжительность                        : 2 ч. 6 м.
Битрейт                                  : 1450 Кбит/сек
Ширина                                   : 720 пикселей
Высота                                   : 384 пикселя
Соотношение сторон                       : 1,85:1
Частота кадров                           : 23,976 (24000/1001) кадра/сек
Цветовое пространство                    : YUV
Субдискретизация насыщенности            : 4:2:0
Битовая глубина                          : 8 бит
Тип развёртки                            : Прогрессивная
Метод сжатия                             : С потерями
Бит/(Пиксели*Кадры)                      : 0.219
Размер потока                            : 1,28 Гбайт (88%)
Библиотека кодирования                   : XviD 73
Аудио
Идентификатор                            : 1
Формат                                   : AC-3
Формат/Информация                        : Audio Coding 3
Параметр Endianness формата              : Big
Идентификатор кодека                     : 2000
Продолжительность                        : 2 ч. 6 м.
Вид битрейта                             : Постоянный
Битрейт                                  : 192 Кбит/сек
Каналы                                   : 2 канала
Расположение каналов                     : Front: L R
Частота                                  : 48,0 КГц
Частота кадров                           : 31,250 кадров/сек (1536 spf)
Битовая глубина                          : 16 бит
Метод сжатия                             : С потерями
Размер потока                            : 174 Мбайт (12%)
Выравнивание                             : Разделение по промежуткам
Продолжительность промежутка             : 42  мс. (1,00 видеокадр)
Время предзагрузки промежутка            : 500  мс.
ServiceKind/String                       : Complete Main
Общее
Полное имя                               : 2 Парк Юрского периода Затерянный мир  1997 HDRip.avi
Формат                                   : AVI
Формат/Информация                        : Audio Video Interleave
Размер файла                             : 1,46 Гбайт
Продолжительность                        : 2 ч. 8 м.
Общий поток                              : 1619 Кбит/сек
Программа кодирования                    : VirtualDubMod 1.5.10.3 | www.virtualdub-fr.org || (build 2550/release)
Библиотека кодирования                   : VirtualDubMod build 2550/release
Видео
Идентификатор                            : 0
Формат                                   : MPEG-4 Visual
Профиль формата                          : Advanced [email protected]
Параметр BVOP формата                    : 2
Параметр QPel формата                    : Нет
Параметр GMC формата                     : Без точки перехода
Параметр матрицы формата                 : Выборочная
Идентификатор кодека                     : XVID
Идентификатор кодека/Подсказка           : XviD
Продолжительность                        : 2 ч. 8 м.
Битрейт                                  : 1418 Кбит/сек
Ширина                                   : 704 пикселя
Высота                                   : 384 пикселя
Соотношение сторон                       : 1,85:1
Частота кадров                           : 23,976 (24000/1001) кадра/сек
Цветовое пространство                    : YUV
Субдискретизация насыщенности            : 4:2:0
Битовая глубина                          : 8 бит
Тип развёртки                            : Прогрессивная
Метод сжатия                             : С потерями
Бит/(Пиксели*Кадры)                      : 0.219
Размер потока                            : 1,27 Гбайт (88%)
Библиотека кодирования                   : XviD 65
Аудио
Идентификатор                            : 1
Формат                                   : AC-3
Формат/Информация                        : Audio Coding 3
Параметр Endianness формата              : Big
Идентификатор кодека                     : 2000
Продолжительность                        : 2 ч. 8 м.
Вид битрейта                             : Постоянный
Битрейт                                  : 192 Кбит/сек
Каналы                                   : 2 канала
Расположение каналов                     : Front: L R
Частота                                  : 48,0 КГц
Частота кадров                           : 31,250 кадров/сек (1536 spf)
Битовая глубина                          : 16 бит
Метод сжатия                             : С потерями
Размер потока                            : 177 Мбайт (12%)
Выравнивание                             : Разделение по промежуткам
Продолжительность промежутка             : 42  мс. (1,00 видеокадр)
Время предзагрузки промежутка            : 500  мс.
ServiceKind/String                       : Complete Main
Общее
Полное имя                               : 3 Парк Юрского периода 2001  Jurassic Park III HDRip.avi
Формат                                   : AVI
Формат/Информация                        : Audio Video Interleave
Размер файла                             : 1,45 Гбайт
Продолжительность                        : 1 ч. 32 м.
Общий поток                              : 2254 Кбит/сек
Название фильма                          : Jurassic Park III (2001) BDRip
Режиссёр                                 : DaniLch
Жанр                                     : Action/Adventure/Sci-Fi/Thriller
Программа кодирования                    : VirtualDubMod 1.5.10.2 (build 2542/release)
Авторское право                          : http://hqclub.net/
Примечание                               : R.G. HQCLUB
Видео
Идентификатор                            : 0
Формат                                   : MPEG-4 Visual
Профиль формата                          : Advanced [email protected]
Параметр BVOP формата                    : 1
Параметр QPel формата                    : Нет
Параметр GMC формата                     : Без точки перехода
Параметр матрицы формата                 : Выборочная
Идентификатор кодека                     : XVID
Идентификатор кодека/Подсказка           : XviD
Продолжительность                        : 1 ч. 32 м.
Битрейт                                  : 1861 Кбит/сек
Ширина                                   : 704 пикселя
Высота                                   : 384 пикселя
Соотношение сторон                       : 1,85:1
Частота кадров                           : 23,976 (24000/1001) кадра/сек
Цветовое пространство                    : YUV
Субдискретизация насыщенности            : 4:2:0
Битовая глубина                          : 8 бит
Тип развёртки                            : Прогрессивная
Метод сжатия                             : С потерями
Бит/(Пиксели*Кадры)                      : 0.287
Размер потока                            : 1,20 Гбайт (83%)
Библиотека кодирования                   : XviD 64
Аудио
Идентификатор                            : 1
Формат                                   : AC-3
Формат/Информация                        : Audio Coding 3
Параметр Endianness формата              : Big
Идентификатор кодека                     : 2000
Продолжительность                        : 1 ч. 32 м.
Вид битрейта                             : Постоянный
Битрейт                                  : 384 Кбит/сек
Каналы                                   : 6 каналов
Расположение каналов                     : Front: L C R, Side: L R, LFE
Частота                                  : 48,0 КГц
Частота кадров                           : 31,250 кадров/сек (1536 spf)
Битовая глубина                          : 16 бит
Метод сжатия                             : С потерями
Размер потока                            : 254 Мбайт (17%)
Выравнивание                             : Разделение по промежуткам
Продолжительность промежутка             : 42  мс. (1,00 видеокадр)
Время предзагрузки промежутка            : 500  мс.
ServiceKind/String                       : Complete Main
Общее
Полное имя                               : 4 Мир Юрского периода 2015 HDRip.avi
Формат                                   : AVI
Формат/Информация                        : Audio Video Interleave
Размер файла                             : 1,54 Гбайт
Продолжительность                        : 1 ч. 57 м.
Общий поток                              : 1878 Кбит/сек
Программа кодирования                    : VirtualDubModRus 1.5.10.2 (build 2542/release)
Библиотека кодирования                   : VirtualDubMod build 2542/release
Видео
Идентификатор                            : 0
Формат                                   : MPEG-4 Visual
Профиль формата                          : Advanced [email protected]
Параметр BVOP формата                    : 1
Параметр QPel формата                    : Нет
Параметр GMC формата                     : Без точки перехода
Параметр матрицы формата                 : Выборочная
Идентификатор кодека                     : XVID
Идентификатор кодека/Подсказка           : XviD
Продолжительность                        : 1 ч. 57 м.
Битрейт                                  : 1421 Кбит/сек
Ширина                                   : 720 пикселей
Высота                                   : 360 пикселей
Соотношение сторон                       : 2,000
Частота кадров                           : 23,976 (24000/1001) кадра/сек
Цветовое пространство                    : YUV
Субдискретизация насыщенности            : 4:2:0
Битовая глубина                          : 8 бит
Тип развёртки                            : Прогрессивная
Метод сжатия                             : С потерями
Бит/(Пиксели*Кадры)                      : 0.229
Размер потока                            : 1,16 Гбайт (76%)
Библиотека кодирования                   : XviD 73
Аудио
Идентификатор                            : 1
Формат                                   : AC-3
Формат/Информация                        : Audio Coding 3
Параметр Endianness формата              : Big
Идентификатор кодека                     : 2000
Продолжительность                        : 1 ч. 57 м.
Вид битрейта                             : Постоянный
Битрейт                                  : 448 Кбит/сек
Каналы                                   : 6 каналов
Расположение каналов                     : Front: L C R, Side: L R, LFE
Частота                                  : 48,0 КГц
Частота кадров                           : 31,250 кадров/сек (1536 spf)
Битовая глубина                          : 16 бит
Метод сжатия                             : С потерями
Размер потока                            : 375 Мбайт (24%)
Выравнивание                             : Разделение по промежуткам
Продолжительность промежутка             : 42  мс. (1,00 видеокадр)
Время предзагрузки промежутка            : 500  мс.
ServiceKind/String                       : Complete Main
Общее
Полное имя                               : 5 Мир Юрского периода 2018 HDRip.avi
Формат                                   : AVI
Формат/Информация                        : Audio Video Interleave
Размер файла                             : 1,46 Гбайт
Продолжительность                        : 2 ч. 8 м.
Общий поток                              : 1630 Кбит/сек
Программа кодирования                    : VirtualDubMod 1.5.10.3 | www.virtualdub-fr.org || (build 2550/release)
Библиотека кодирования                   : VirtualDubMod build 2550/release
Видео
Идентификатор                            : 0
Формат                                   : MPEG-4 Visual
Профиль формата                          : Advanced [email protected]
Параметр BVOP формата                    : 1
Параметр QPel формата                    : Нет
Параметр GMC формата                     : Без точки перехода
Параметр матрицы формата                 : Выборочная
Идентификатор кодека                     : XVID
Идентификатор кодека/Подсказка           : XviD
Продолжительность                        : 2 ч. 8 м.
Битрейт                                  : 1429 Кбит/сек
Ширина                                   : 720 пикселей
Высота                                   : 304 пикселя
Соотношение сторон                       : 2,35:1
Частота кадров                           : 23,976 (24000/1001) кадра/сек
Цветовое пространство                    : YUV
Субдискретизация насыщенности            : 4:2:0
Битовая глубина                          : 8 бит
Тип развёртки                            : Прогрессивная
Метод сжатия                             : С потерями
Бит/(Пиксели*Кадры)                      : 0.272
Размер потока                            : 1,28 Гбайт (88%)
Библиотека кодирования                   : XviD 73
Аудио
Идентификатор                            : 1
Формат                                   : AC-3
Формат/Информация                        : Audio Coding 3
Параметр Endianness формата              : Big
Идентификатор кодека                     : 2000
Продолжительность                        : 2 ч. 8 м.
Вид битрейта                             : Постоянный
Битрейт                                  : 192 Кбит/сек
Каналы                                   : 2 канала
Расположение каналов                     : Front: L R
Частота                                  : 48,0 КГц
Частота кадров                           : 31,250 кадров/сек (1536 spf)
Битовая глубина                          : 16 бит
Метод сжатия                             : С потерями
Размер потока                            : 176 Мбайт (12%)
Выравнивание                             : Разделение по промежуткам
Продолжительность промежутка             : 42  мс. (1,00 видеокадр)
Время предзагрузки промежутка            : 500  мс.
ServiceKind/String                       : Complete Main
-Скриншоты:


Смотреть онлайн


[trackeroc.org].29401.torrent 
Torrent: Registered   [ 2019-10-25 00:51 ]

Скачать торрент

38 KB

Status: checked
Completed: 8 times
Size: 7.37 GB
 

Similar torrent
Forum Topic Author Size
Документальные ,Трейлеры Мамонты: Гиганты ледникового периода / Mammoths. Giants of the Ace (2014) WEB-DL [H.264/1080p] Admin 3.53 GB
Фантастика ,Фэнтези Мир Юрского периода 2 / Jurassic World: Fallen Kingdom (2018) WEBRip | Чистый звук Admin 1.46 GB
Фантастика ,Фэнтези Мир Юрского периода / Jurassic World (2015) HDRip Admin 2.19 GB
Три в ряд Jurassic World / Мир юрского периода (2012) (Alawar) (RUS) [P] HOPE 7 MB

_________________
[Profile] [PM]
Display posts from previous:    
Reply to topic

The time now is: Today 22:12

All times are GMT + 4 Hours



You cannot post new topics in this forum
You cannot reply to topics in this forum
You cannot edit your posts in this forum
You cannot delete your posts in this forum
You cannot vote in polls in this forum
You cannot attach files in this forum
You can download files in this forum