Первобытный / Primal (2019) WEBRip [H.264/1080p] (сезон 1, серии 1-5 из 5) скачать торрент

Reply to topic

DL-List and Torrent activity [Update пиров]
Size:  4.11 GB   |    Registered:  26 days   |    Completed:  0 times
Seeders:  3  [  100 KB/s  ]   Show peers in full details
 
 
 
 
Author Message

BiOS ®

Longevity: 5 years 7 months

Posts: 2348

Location: Earth


Post 24-Oct-2019 09:45

[Quote]

Первобытный / Primal - Производство: США / Cartoon Network Studios, MGM Television, Williams Street
Жанр: мультфильм
Режиссер: Genndy Tartakovsky
Описание:
Слабые в жестоком мире первобытной Земли не выживают, и главный герой намерен доказать всем, что он тут самый сильный. А лучшее доказательство — убить и разорвать на части голыми руками.

Дата мировой премьеры: 7 октября 2019
Продолжительность: ~ 00:22:00 серия
Качество видео: WEBRip
Перевод: Не требуется
Субтитры: английские (звуки природы)
Видео: AVC/H.264, 1920x1080, ~3809 Kbps
Аудио: AC3, 6 ch, 640 Kbps

MediaInfo:

Общее
Уникальный идентификатор : 68036978407864483236407017975016475865 (0x332F7206015A75F900BCC8072A1E4CD9)
Полное имя : Primal.S01E01.Spear.and.Fang.1080p.AMZN.WEB-DL.DD+5.1.H.264.mkv
Формат : Matroska
Версия формата : Version 4
Размер файла : 689 Мбайт
Продолжительность : 21 м. 38 с.
Общий поток : 4451 Кбит/сек
Дата кодирования : UTC 2019-10-08 14:41:24
Программа кодирования : mkvmerge v37.0.0 ('Leave It') 64-bit
Библиотека кодирования : libebml v1.3.9 + libmatroska v1.5.2
Видео
Идентификатор : 1
Формат : AVC
Формат/Информация : Advanced Video Codec
Профиль формата : [email protected]
Настройки формата : CABAC / 4 Ref Frames
Параметр CABAC формата : Да
Параметр RefFrames формата : 4 кадра
Идентификатор кодека : V_MPEG4/ISO/AVC
Продолжительность : 21 м. 38 с.
Вид битрейта : Постоянный
Битрейт : 3809 Кбит/сек
Номинальный битрейт : 10000 Кбит/сек
Ширина : 1920 пикселей
Высота : 1080 пикселей
Соотношение сторон : 16:9
Режим частоты кадров : Постоянный
Частота кадров : 23,976 (24000/1001) кадра/сек
Цветовое пространство : YUV
Субдискретизация насыщенности : 4:2:0
Битовая глубина : 8 бит
Тип развёртки : Прогрессивная
Бит/(Пиксели*Кадры) : 0.077
Размер потока : 590 Мбайт (86%)
Default : Да
Forced : Нет
Цветовой диапазон : Limited
Основные цвета : BT.709
Характеристики трансфера : BT.709
Коэффициенты матрицы : BT.709
Аудио
Идентификатор : 2
Формат : E-AC-3
Формат/Информация : Enhanced AC-3
Коммерческое название : Dolby Digital Plus
Идентификатор кодека : A_EAC3
Продолжительность : 21 м. 38 с.
Вид битрейта : Постоянный
Битрейт : 640 Кбит/сек
Каналы : 6 каналов
ChannelLayout : L R C LFE Ls Rs
Частота : 48,0 КГц
Частота кадров : 31,250 кадров/сек (1536 SPF)
Метод сжатия : С потерями
Размер потока : 99,0 Мбайт (14%)
Язык : English
ServiceKind/String : Complete Main
Default : Да
Forced : Нет
Текст
Идентификатор : 3
Формат : UTF-8
Идентификатор кодека : S_TEXT/UTF8
Идентификатор кодека/Информация : UTF-8 Plain Text
Продолжительность : 21 м. 29 с.
Битрейт : 20 бит/сек
ElementCount : 288
Размер потока : 3,25 Кбайт (0%)
Заголовок : SDH
Язык : English
Default : Нет
Forced : Нет

Список серий:

1. Копье и клык
2. Река Змей
3. Холодная смерть
4. Ужас под кровавой луной
5. Ярость мужчин-обезьян
-Скриншоты:


Смотреть онлайн


[trackeroc.org].29399.torrent 
Torrent: Registered   [ 2019-10-24 09:45 ]

Скачать торрент

12 KB

Status: checked
Completed: 14 times
Size: 4.11 GB
 

Admin (29-окт-19)
Similar torrent
Forum Topic Author Size
Racing, гонки Primal Pursuit (2019) (ENG) Admin 1.28 GB
Ужасы ,мистика ,триллеры Первобытная ярость: Легенда О-Ма / Primal Rage: The Legend of Oh-Mah (2018) WEBRip Admin 1.23 GB
Шутеры от первого лица Far Cry Primal: Apex Edition (2016) [RUS][ENG][Multi19][RePack] от qoob max+100600 12.29 GB
Shooter Primal Carnage: Extinction [v1.1.4] (2015) (ENG) Admin 3.68 GB

_________________
[Profile] [PM]
Display posts from previous:    
Reply to topic

The time now is: Today 16:26

All times are GMT + 4 Hours



You cannot post new topics in this forum
You cannot reply to topics in this forum
You cannot edit your posts in this forum
You cannot delete your posts in this forum
You cannot vote in polls in this forum
You cannot attach files in this forum
You can download files in this forum