План побега 3 / Escape Plan: The Extractors (2019) HDRip [MVO] скачать торрент

Reply to topic

DL-List and Torrent activity [Update пиров]
Size:  1.46 GB   |    Registered:  7 months   |    Completed:  1 time

Seeder not seen: 6 months 22 days

 
 
 
 
 
Author Message

BiOS ®

Longevity: 5 years 9 months

Posts: 2408

Location: Earth


Post 27-Jun-2019 11:14

[Quote]

План побега 3 / Escape Plan: The Extractors
«Выход есть всегда»
- Производство: США / Emmett/Furla/Oasis Films (EFO Films), Leomus Pictures, Twirly Films Limited
Жанр: Боевик, триллер
Режиссер: Джон Херцфелд
Актеры: Сильвестр Сталлоне, Дэйв Батиста, 50 Cent, Джейми Кинг, Макс Чжан, Девон Сава, Гарри Шам мл., Расселл Вонг, Дэниэл Бернхард, Лидия Халл
Описание:
Непревзойденный взломщик тюрем Рэй Бреслин опять ввязался в смертельно опасную авантюру: вместе со своей командой он берётся разыскать похищенную дочь своего друга — бизнесмена из Гонконга. Нити расследования приводят к одной из самых секретных тюрем Америки, которая называется «Пункт Дьявола».

Возраст: 18+ (зрителям, достигшим 18 лет. запрещено для детей)
Рейтинг MPAA: R (лицам до 17 лет обязательно присутствие взрослого)
Дата мировой премьеры: 8 июня 2019
Дата премьеры в России: 27 июня 2019

Продолжительность: 01:27:34
Качество видео: HDRip
Перевод: Многоголосый закадровый, профессиональный (СВ Студия)
Субтитры: Отсутствуют
Видео: XviD, 720x304, ~1923 Kbps
Аудио: AC-3, 6 ch, 448 Kbps

MediaInfo:

Общее
Формат : AVI
Формат/Информация : Audio Video Interleave
Размер файла : 1,46 Гбайт
Продолжительность : 1 ч. 27 м.
Общий поток : 2380 Кбит/сек
Название фильма : План побега 3_2019_HDRip
Программа кодирования : VirtualDubMod 1.5.10.3 | www.virtualdub-fr.org || (build 2550/release)
Авторское право : порошков
Видео
Идентификатор : 0
Формат : MPEG-4 Visual
Профиль формата : Advanced [email protected]
Настройки формата : BVOP1 / Custom Matrix
Параметр BVOP формата : 1
Параметр QPel формата : Нет
Параметр GMC формата : Без точки перехода
Параметр матрицы формата : Выборочная
Идентификатор кодека : XVID
Идентификатор кодека/Подсказка : XviD
Продолжительность : 1 ч. 27 м.
Битрейт : 1923 Кбит/сек
Ширина : 720 пикселей
Высота : 304 пикселя
Соотношение сторон : 2,35:1
Частота кадров : 23,976 (24000/1001) кадра/сек
Цветовое пространство : YUV
Субдискретизация насыщенности : 4:2:0
Битовая глубина : 8 бит
Тип развёртки : Прогрессивная
Метод сжатия : С потерями
Бит/(Пиксели*Кадры) : 0.366
Размер потока : 1,18 Гбайт (81%)
Библиотека кодирования : XviD 73
Аудио
Идентификатор : 1
Формат : AC-3
Формат/Информация : Audio Coding 3
Коммерческое название : Dolby Digital
Идентификатор кодека : 2000
Продолжительность : 1 ч. 27 м.
Вид битрейта : Постоянный
Битрейт : 448 Кбит/сек
Каналы : 6 каналов
Channel layout : L R C LFE Ls Rs
Частота : 48,0 КГц
Частота кадров : 31,250 кадров/сек (1536 SPF)
Битовая глубина : 16 бит
Метод сжатия : С потерями
Размер потока : 281 Мбайт (19%)
Выравнивание : Разделение по промежуткам
Продолжительность промежутка : 42 мс. (1,00 видеокадр)
Время предзагрузки промежутка : 500 мс.
ServiceKind/String : Complete Main
-Скриншоты:


Смотреть онлайн


[trackeroc.org].28628.torrent 
Torrent: Registered   [ 2019-06-27 11:14 ]

Скачать торрент

15 KB

Status: checked
Completed: 23 times
Size: 1.46 GB
 

Admin (27-июн-19)
Similar torrent
Forum Topic Author Size
Отечественные Бременские Музыканты (1968 - 1973) DVD-5 (Полная Реставрация Изображения и Звука) «Крупный План» BiOS 3.87 GB
Боевики План ограбления / Blue Line (2016) WEB-DLRip [Line] BiOS 1.36 GB

_________________
[Profile] [PM]
Display posts from previous:    
Reply to topic

The time now is: Today 01:01

All times are GMT + 4 Hours



You cannot post new topics in this forum
You cannot reply to topics in this forum
You cannot edit your posts in this forum
You cannot delete your posts in this forum
You cannot vote in polls in this forum
You cannot attach files in this forum
You can download files in this forum