Плохие парни навсегда / Bad Boys for Life (2020) CamRip [H.264/720p-LQ] [MVO, AD] скачать торрент

Reply to topic

DL-List and Torrent activity [Update пиров]
Size:  3.38 GB   |    Registered:  1 month 6 days   |    Completed:  0 times

Seeder not seen: Never

 
 
 
 
 
Author Message

BiOS ®

Longevity: 5 years 10 months

Posts: 2421

Location: Earth


Post 22-Jan-2020 22:59

[Quote]

Плохие парни навсегда / Bad Boys for Life
«Вместе зажигаем. Вместе под пули»
- Производство: США, Мексика / Columbia Pictures, 2.0 Entertainment, Columbia Pictures Mexico
Жанр: боевик, триллер, комедия, криминал
Режиссер: Адиль Эль Арби, Билал Фалла
Продюсер: Даг Белград, Джерри Брукхаймер, Уилл Смит
Актеры: Уилл Смит, Мартин Лоуренс, Ванесса Энн Хадженс, Александр Людвиг, Паола Нуньес, Майкл Бэй, Кейт дель Кастильо, Джо Пантольяно, Чарльз Мелтон, Джейкоб Скипио
Описание:
Детективы Майк Лоури и Маркус Бёрнетт снова в деле! Правда, их отстраняют от всех операций, но разве отчаянных друзей когда-нибудь что-либо останавливало? Ведь на этот раз на Майка открывает охоту некто из его прошлой жизни. Так что парням придется отжечь по полной!

Возраст: 18+ (зрителям, достигшим 18 лет. запрещено для детей)
Рейтинг MPAA: R (лицам до 17 лет обязательно присутствие взрослого)
Дата мировой премьеры: 7 января 2020
Дата российской премьеры: 23 января 2020, «WDSSPR»
Продолжительность: 01:57:45
Качество видео: CamRip
Перевод: Многоголосый любительский (КОЛОБОК)
Субтитры: отсутствуют
Реклама: Присутствуют вставки голосовой и баннерной рекламы
Видео: AVC/H.264, 1280x536, ~3 728 Kbps
Аудио: AAC, 2 ch, 384 Kbps - Русский (MVO)

MediaInfo:

General
Unique ID : 184006751787753010968803025910355779526 (0x8A6E694C835674B09BE3F6FCC190DFC6)
Complete name : Bad.Boys.for.Life.2020.TS.72Op.mkv
Format : Matroska
Format version : Version 2
File size : 3.38 GiB
Duration : 1 h 57 min
Overall bit rate mode : Variable
Overall bit rate : 4 112 kb/s
Encoded date : UTC 2020-01-17 17:25:04
Writing application : mkvmerge v8.3.0 ('Over the Horizon') 64bit
Writing library : libebml v1.3.1 + libmatroska v1.4.2
Video
ID : 1
Format : AVC
Format/Info : Advanced Video Codec
Format profile : [email protected]
Format settings : CABAC / 4 Ref Frames
Format settings, CABAC : Yes
Format settings, Reference : 4 frames
Codec ID : V_MPEG4/ISO/AVC
Duration : 1 h 57 min
Bit rate mode : Variable
Bit rate : 3 728 kb/s
Nominal bit rate : 4 000 kb/s
Maximum bit rate : 4 000 kb/s
Width : 1 280 pixels
Height : 536 pixels
Display aspect ratio : 2.40:1
Frame rate mode : Constant
Frame rate : 23.976 (24000/1001) FPS
Standard : Component
Color space : YUV
Chroma subsampling : 4:2:0
Bit depth : 8 bits
Scan type : Progressive
Bits/(Pixel*Frame) : 0.227
Stream size : 3.07 GiB (91%)
Writing library : x264 core 155
Encoding settings : cabac=1 / ref=4 / deblock=1:0:0 / analyse=0x3:0x3 / me=dia / subme=1 / psy=1 / psy_rd=1.00:0.00 / mixed_ref=0 / me_range=16 / chroma_me=1 / trellis=0 / 8x8dct=1 / cqm=1 / deadzone=21,11 / fast_pskip=1 / chroma_qp_offset=0 / threads=17 / lookahead_threads=2 / sliced_threads=0 / slices=1 / nr=0 / decimate=1 / interlaced=0 / minigop=0 / stitchable=1 / constrained_intra=0 / bframes=2 / b_pyramid=0 / b_adapt=0 / b_bias=0 / direct=1 / weightb=1 / open_gop=1 / weightp=0 / keyint=240 / keyint_min=23 / scenecut=40 / intra_refresh=0 / rc_lookahead=0 / rc=cbr / mbtree=0 / bitrate=4000 / ratetol=1.0 / qcomp=0.60 / qpmin=1 / qpmax=69 / qpstep=4 / vbv_maxrate=4000 / vbv_bufsize=4000 / nal_hrd=vbr / filler=0 / ip_ratio=1.40 / pb_ratio=1.30 / aq=1:1.00
Default : Yes
Forced : No
Color range : Limited
Color primaries : BT.709
Transfer characteristics : BT.709
Matrix coefficients : BT.709
Audio
ID : 2
Format : AAC Main
Format/Info : Advanced Audio Codec
Codec ID : A_AAC-1
Duration : 1 h 57 min
Bit rate : 384 kb/s
Channel(s) : 2 channels
Channel layout : L R
Sampling rate : 48.0 kHz
Frame rate : 46.875 FPS (1024 SPF)
Compression mode : Lossy
Stream size : 321 MiB (9%)
Default : Yes
Forced : No
-Скриншоты:


Смотреть онлайн


[trackeroc.org].29828.torrent 
Torrent: Registered   [ 2020-01-22 22:59 ]

Скачать торрент

18 KB

Status: T temporary
Completed: 23 times
Size: 3.38 GB
 

Admin (23-янв-20)
Similar torrent
Forum Topic Author Size
Зарубежные сериалы Плохие / Отбросы / Misfits / Сезон: 1-5 [2009-2013] BDRip (Кубик в кубе) BiOS 15.28 GB
Комедии Плохие соседи по комнате / Bad Roomies (2015) WEB-DLRip Admin 1.36 GB
Ужасы ,мистика ,триллеры 16 навсегда / Forever 16 (2013) TVRip [EN] BiOS 698 MB

_________________
[Profile] [PM]
Display posts from previous:    
Reply to topic

The time now is: Today 10:32

All times are GMT + 4 Hours



You cannot post new topics in this forum
You cannot reply to topics in this forum
You cannot edit your posts in this forum
You cannot delete your posts in this forum
You cannot vote in polls in this forum
You cannot attach files in this forum
You can download files in this forum