Полицейский с Рублёвки. Новогодний беспредел (2018) WEB-DL [H.264/1080p-LQ] скачать торрент

Reply to topic

DL-List and Torrent activity [Update пиров]
Size:  3.26 GB   |    Registered:  17 days   |    Completed:  1 time

Seeder not seen: 12 days

 
 
 
 
 
Author Message

BiOS ®

Longevity: 5 years 1 month

Posts: 2230

Location: East Siberia


Post 05-May-2019 02:51

[Quote]

ПОЛИЦЕЙСКИЙ с РУБЛЁВКИ. Новогодний беспредел «НАМ НУЖНЫ ВАШИ ДЕНЬГИ»- Производство: Россия
Жанр: Комедия
Режиссер: Илья Куликов
Актеры: Александр Петров, Сергей Бурунов, Александра Бортич, Роман Попов, Татьяна Бабенкова, София Каштанова, Рина Гришина, Ирина Вилкова, Никита Легостев, Александр Буянов
Описание:
В канун нового года отделение полиции «Барвиха Северное» оказывается под угрозой закрытия. Чтобы спасти родной отдел, полицейский с Рублевки Гриша Измайлов вынужден пойти на крайние меры и вместе с оперативниками решает ограбить банк. Он рассчитывает на то, что его коллеги вместе с начальником отдела — Яковлевым легко раскроют это дело, деньги вернут обратно, и все сохранят работу в следующем году. Но все идет не так, как задумал Гриша…

Возраст: 16+ (зрителям, достигшим 16 лет)
Дата мировой премьеры: 4 января 2019
Дата российской премьеры: 20 декабря 2018, «Каропрокат»
Продолжительность: 01:30:02
Качество видео: WEB-DL
Перевод: Не требуется (русский)
Субтитры: Отсутствуют
Видео: AVC/H.264, 1920x1080, 5000 kbps
Аудио: AC3, 2 ch, 192 Kbps

Mediainfo:

Общее
Формат : Matroska
Версия формата : Version 4
Размер файла : 3,26 Гбайт
Продолжительность : 1 ч. 30 м.
Режим общего битрейта : Постоянный
Общий поток : 5178 Кбит/сек
Дата кодирования : UTC 2019-05-04 16:01:15
Программа кодирования : mkvmerge v8.3.0 ('Over the Horizon') 64bit
Библиотека кодирования : libebml v1.3.1 + libmatroska v1.4.2
Видео
Идентификатор : 1
Формат : AVC
Формат/Информация : Advanced Video Codec
Профиль формата : Baseline@L4
Настройки формата : 4 Ref Frames
Параметр CABAC формата : Нет
Параметр RefFrames формата : 4 кадра
Идентификатор кодека : V_MPEG4/ISO/AVC
Продолжительность : 1 ч. 30 м.
Вид битрейта : Постоянный
Битрейт : 5000 Кбит/сек
Ширина : 1920 пикселей
Высота : 1080 пикселей
Соотношение сторон : 16:9
Режим частоты кадров : Постоянный
Частота кадров : 25,000 кадров/сек
Стандарт вещания : PAL
Цветовое пространство : YUV
Субдискретизация насыщенности : 4:2:0
Битовая глубина : 8 бит
Тип развёртки : Прогрессивная
Бит/(Пиксели*Кадры) : 0.096
Размер потока : 3,13 Гбайт (96%)
Язык : Russian
Default : Да
Forced : Нет
Цветовой диапазон : Limited
Основные цвета : BT.709
Характеристики трансфера : BT.709
Коэффициенты матрицы : BT.709
Аудио
Идентификатор : 2
Формат : AC-3
Формат/Информация : Audio Coding 3
Коммерческое название : Dolby Digital
Идентификатор кодека : A_AC3
Продолжительность : 1 ч. 30 м.
Вид битрейта : Постоянный
Битрейт : 192 Кбит/сек
Каналы : 2 канала
ChannelLayout : L R
Частота : 48,0 КГц
Частота кадров : 31,250 кадров/сек (1536 SPF)
Битовая глубина : 16 бит
Метод сжатия : С потерями
Размер потока : 124 Мбайт (4%)
Язык : Russian
ServiceKind/String : Complete Main
Default : Да
Forced : Нет
-Скриншоты:


Смотреть онлайн


[trackeroc.org].28210.torrent 
Torrent: Registered   [ 2019-05-05 02:51 ]

Скачать торрент

17 KB

Status: checked
Completed: 12 times
Size: 3.26 GB
 

Admin (06-май-19)
Similar torrent
Forum Topic Author Size
Российские сериалы Полицейский с Рублёвки (2018) WEB-DLRip (сезон 4, серии 1-8 из 8) BiOS 9.72 GB
Российские сериалы Полицейский с Рублёвки (2018) SATRip (сезон 3, серии 1-8 из 8) BiOS 5.52 GB
Российские сериалы Полицейский с Рублёвки (2017) SATRip (сезон 2, серии 1-8 из 8) BiOS 5.17 GB
Российские сериалы Полицейский с Рублёвки (2016) SATRip (сезон 1, серии 1-8 из 8) BiOS 4.66 GB

_________________
[Profile] [PM]
Display posts from previous:    
Reply to topic

The time now is: Today 18:59

All times are GMT + 4 Hours



You cannot post new topics in this forum
You cannot reply to topics in this forum
You cannot edit your posts in this forum
You cannot delete your posts in this forum
You cannot vote in polls in this forum
You cannot attach files in this forum
You can download files in this forum