Приключения Артемки (1956) TVRip скачать торрент

Reply to topic

DL-List and Torrent activity [Update пиров]
Size:  1.3 GB   |    Registered:  3 years 2 months   |    Completed:  2 times

Seeder not seen: 1 year 2 months

 
 
 
 
 
Author Message

BiOS ®

Longevity: 5 years 4 months

Posts: 2280

Location: East Siberia


Post 04-Jul-2016 05:09

[Quote]

Приключения Артёмки - Год выпуска: 1956
Производство: СССР, Ленфильм
Жанр: Приключения, Семейный, Драма
Описание фильма:
По повести И. Василенко «Артёмка в цирке».
На шумном базаре приморского города стояла дощатая будка «холодного сапожника», тринадцатилетнего мальчика Артёмки. Однажды в порт пришла шхуна «Красотка». С нее сошли двое пассажиров - профессиональный борец, чернокожий Чемберс Пепс, и революционер Попов. Случай столкнул Артёмку с Пепсом…
Режиссер: Андрей Апсолон
Актеры: Борис Александров, Тито Ромалио, Сергей Плотников, Петр Савин, Михаил Трояновский, Тамара Ларкина, Леонид Галлис, Виталий Полицеймако, В. Муковозов, Иван Назаров, Олег Жаков, Анатолий Абрамов, Марк Перцовский, Борис Дмоховский, Тамара Алёшина, Анатолий Федосеев
Продолжительность: 01:16:46
Качество видео: TVRip
Видео: Xvid, 720x544, ~2217 Кбит/сек
Аудио: MP3, 2 ch, 192 Кбит/сек, CBR

MediaInfo

Код:
Общее
Формат                                   : AVI
Формат/Информация                        : Audio Video Interleave
Размер файла                             : 1,09 Гбайт
Продолжительность                        : 1 ч. 16 м.
Общий поток                              : 2035 Кбит/сек
Программа кодирования                    : VirtualDubModRus 1.5.10.2 (build 2542/release)
Библиотека кодирования                   : VirtualDubMod build 2542/release
Видео
Идентификатор                            : 0
Формат                                   : MPEG-4 Visual
Профиль формата                          : Advanced [email protected]
Параметр BVOP формата                    : 2
Параметр QPel формата                    : Нет
Параметр GMC формата                     : Без точки перехода
Параметр матрицы формата                 : Default (H.263)
Режим смешивания                         : Сжатый битовый поток
Идентификатор кодека                     : XVID
Идентификатор кодека/Подсказка           : XviD
Продолжительность                        : 1 ч. 16 м.
Битрейт                                  : 1833 Кбит/сек
Ширина                                   : 688 пикселей
Высота                                   : 512 пикселей
Соотношение сторон                       : 4:3
Частота кадров                           : 25,000 кадров/сек
Цветовое пространство                    : YUV
Субдискретизация насыщенности            : 4:2:0
Битовая глубина                          : 8 бит
Тип развёртки                            : Прогрессивная
Метод сжатия                             : С потерями
Бит/(Пиксели*Кадры)                      : 0.208
Размер потока                            : 1007 Мбайт (90%)
Библиотека кодирования                   : XviD 63
Аудио
Идентификатор                            : 1
Формат                                   : MPEG Audio
Версия формата                           : Version 1
Профиль формата                          : Layer 3
Идентификатор кодека                     : 55
Идентификатор кодека/Подсказка           : MP3
Продолжительность                        : 1 ч. 16 м.
Вид битрейта                             : Постоянный
Битрейт                                  : 192 Кбит/сек
Каналы                                   : 2 канала
Частота                                  : 48,0 КГц
Метод сжатия                             : С потерями
Размер потока                            : 105 Мбайт (9%)
Выравнивание                             : Соединение по промежуткам
Продолжительность промежутка             : 40  мс. (1,00 видеокадр)
Время предзагрузки промежутка            : 504  мс.
Библиотека кодирования                   : LAME3.97
Настройки программы                      : -m s -V 4 -q 1 -b 192
-Скриншоты:


Смотреть онлайн


[trackeroc.ru].13601.torrent 
Torrent: Registered   [ 2016-07-04 05:09 ]

Скачать торрент

14 KB

Status: checked
Completed: 106 times
Size: 1.3 GB
 

Similar torrent
Forum Topic Author Size
Три в ряд Tritos Adventure II / Приключения Трито 2 (2019) (ENG+RUS) Admin 171 MB
Отечественные Мультсериалы Приключения Ам-Няма / Om Nom Stories (2011-2019) WEB-DLRip [H.264/720p-LQ] (сезон 1-12, серии 1-120 из 120 + БОНУСЫ) BiOS 6 GB
Сasual games, Тайм менеджмент Приключения Римлян: Бритты. Сезон 2 / Roman Adventures Britons Season 2 (2019) RUS Admin 217 MB
Квесты, я ищу, Поиск предметов, Hidden Object Christmas Stories 7. Alice's Adventures / Рождественские истории 7: Приключения Алисы [RUS / RUS] (2018) Admin 1.26 GB
Сasual games, Тайм менеджмент Приключения Римлян: Бритты. Сезон 1 / Roman Adventures Britons Season 1 (2018) RUS Admin 189 MB

_________________
[Profile] [PM]
Display posts from previous:    
Reply to topic

The time now is: Today 06:45

All times are GMT + 4 Hours



You cannot post new topics in this forum
You cannot reply to topics in this forum
You cannot edit your posts in this forum
You cannot delete your posts in this forum
You cannot vote in polls in this forum
You cannot attach files in this forum
You can download files in this forum