Приключения Толи Клюквина (1964) DVDRip скачать торрент

Reply to topic

DL-List and Torrent activity [Update пиров]
Size:  700 MB   |    Registered:  3 years 2 months   |    Completed:  3 times

Seeder not seen: 11 months 23 days

 
 
 
 
 
Author Message

BiOS ®

Longevity: 5 years 4 months

Posts: 2280

Location: East Siberia


Post 04-Jul-2016 04:39

[Quote]

Приключения Толи Клюквина - Русское название: Приключения Толи Клюквина
Год выпуска: 1964
Жанр: Комедия, Семейный
Описание фильма:
Толя Клюквин отправляется в гости к своему другу. Неожиданно дорогу ему перебегает черная кошка. Испугавшись, мальчик поворачивает в другую сторону. Вот тут-то и подстерегают его опасности и неприятности.
Режиссер: Виктор Эйсымонт
Актеры: Андрей Филатов, Татьяна Пельтцер, Роман Боровков, Нина Гребешкова, Евгений Весник, Борис Новиков, Марк Перцовский, Сергей Филиппов, Светлана Харитонова, Владимир Смирнов
Продолжительность: 01:03:08
Видеокодек: Xvid
Битрейт видео: ~1351 kb/s
Размер кадра: 704x528
Качество видео: DVDRip
Аудиокодек: AC3, 2 ch
Битрейт аудио: 192 kb/s

MediaInfo

Код:
Общее
Формат                           : AVI
Формат/Информация                : Audio Video Interleave
Размер файла                     : 700 Мбайт
Продолжительность                : 1 ч. 3 м.
Общий поток                      : 1550 Кбит/сек
Программа кодирования            : VirtualDubMod 1.5.4.1 (build 2178/release)
Библиотека кодирования           : VirtualDubMod build 2178/release
Видео
Идентификатор                    : 0
Формат                           : MPEG-4 Visual
Профиль формата                  : Advanced [email protected]
Параметр BVOP формата            : 1
Параметр QPel формата            : Нет
Параметр GMC формата             : Без точки перехода
Параметр матрицы формата         : Выборочная
Идентификатор кодека             : XVID
Идентификатор кодека/Подсказка   : XviD
Продолжительность                : 1 ч. 3 м.
Битрейт                          : 1351 Кбит/сек
Ширина                           : 704 пикс.
Высота                           : 528 пикс.
Соотношение сторон               : 4:3
Частота кадров                   : 25,000 кадр/сек
Цветовое пространство            : YUV
Подвыборка цветности             : 4:2:0
Битовая глубина                  : 8 бит
Тип развёртки                    : Прогрессивная
Метод сжатия                     : С потерями
Бит/(Пиксели*Кадры)              : 0.145
Размер потока                    : 610 Мбайт (87%)
Библиотека кодирования           : XviD 1.2.1 (UTC 2008-12-04)
Аудио
Идентификатор                    : 1
Формат                           : AC-3
Формат/Информация                : Audio Coding 3
Расширение режима                : CM (complete main)
Идентификатор кодека             : 2000
Продолжительность                : 1 ч. 3 м.
Вид битрейта                     : Постоянный
Битрейт                          : 192 Кбит/сек
Канал(ы)                         : 2 канала(ов)
Расположение каналов             : Front: L R
Частота                          : 48,0 КГц
Битовая глубина                  : 16 бит
Метод сжатия                     : С потерями
Размер потока                    : 86,7 Мбайт (12%)
Выравнивание                     : Разделение по промежуткам
Продолжительность промежутка     : 96  мс. (2,40 видеокадров)
Время предзагрузки промежутка    : 96 ms
Язык                             : English
-Скриншоты:


Смотреть онлайн


[trackeroc.ru].13598.torrent 
Torrent: Registered   [ 2016-07-04 04:39 ]

Скачать торрент

14 KB

Status: checked
Completed: 81 times
Size: 700 MB
 

Similar torrent
Forum Topic Author Size
Три в ряд Tritos Adventure II / Приключения Трито 2 (2019) (ENG+RUS) Admin 171 MB
Отечественные Мультсериалы Приключения Ам-Няма / Om Nom Stories (2011-2019) WEB-DLRip [H.264/720p-LQ] (сезон 1-12, серии 1-120 из 120 + БОНУСЫ) BiOS 6 GB
Сasual games, Тайм менеджмент Приключения Римлян: Бритты. Сезон 2 / Roman Adventures Britons Season 2 (2019) RUS Admin 217 MB
Квесты, я ищу, Поиск предметов, Hidden Object Christmas Stories 7. Alice's Adventures / Рождественские истории 7: Приключения Алисы [RUS / RUS] (2018) Admin 1.26 GB
Сasual games, Тайм менеджмент Приключения Римлян: Бритты. Сезон 1 / Roman Adventures Britons Season 1 (2018) RUS Admin 189 MB

_________________
[Profile] [PM]
Display posts from previous:    
Reply to topic

The time now is: Today 06:50

All times are GMT + 4 Hours



You cannot post new topics in this forum
You cannot reply to topics in this forum
You cannot edit your posts in this forum
You cannot delete your posts in this forum
You cannot vote in polls in this forum
You cannot attach files in this forum
You can download files in this forum