Призрак / Ghost (2019) WEBRip [H.264/1080p-LQ] [DVO] скачать торрент

Reply to topic

DL-List and Torrent activity [Update пиров]
Size:  3.15 GB   |    Registered:  1 month 14 days   |    Completed:  0 times

Seeder not seen: Never

 
 
 
 
 
Author Message

BiOS ®

Longevity: 5 years 11 months

Posts: 2426

Location: Earth


Post 19-Feb-2020 01:37

[Quote]

Призрак / Ghost - Производство: Индия, США / Bombay Walla Films, Loneranger Productions
Жанр: ужасы, триллер
Режиссер: Викрам Бхатт
Продюсер: Mehboob Ansari, Джейсон Эш, Сурабхи Бхатнагар
Актеры: Санайя Ирани, Шивам Бхаргава, Викрам Бхатт, Амит Чана, Ananya Sen Gupta, Caroline Wilde, Мониша Хасен, Маной Ананд, Радж Авасти, Aidan Barry
Описание:
Молодой член парламента Каран обвиняется в убийстве своей жены. Его берется защищать перспективный адвокат Симран.

Дата мировой премьеры: 18 октября 2019
Релиз от: Honey&Haseena
Продолжительность: 02:00:42
Качество видео: WEBRip
Перевод: Двухголосый профессиональный (Honey&Haseena)
Субтитры: Русские (хардсаб, на песни)
Видео: AVC/H.264, 1920x804, ~3537 Kbps
Аудио: AC3, 2 ch, 192 Kbps - Русский (DVO)

MediaInfo:

General
Unique ID : 251752077759298115932267369645420907824 (0xBD65AFBF3D51ABA1999ACBED8EF90D30)
Complete name : Prizrak.1080p.WEB-DLRip.MPEG-AVC.2019.Honey&Haseena.mkv
Format : Matroska
Format version : Version 4
File size : 3.15 GiB
Duration : 2 h 0 min
Overall bit rate : 3 731 kb/s
Movie name : Ghost 2019 Hindi 1080p WEBRip x264 AAC ESubs - LOKiHD - Telly
Encoded date : UTC 2020-02-13 05:03:30
Writing application : mkvmerge v8.3.0 ('Over the Horizon') 32bit
Writing library : libebml v1.3.1 + libmatroska v1.4.2 / Lavf58.12.100
Video
ID : 1
Format : AVC
Format/Info : Advanced Video Codec
Format profile : [email protected]
Format settings : CABAC / 3 Ref Frames
Format settings, CABAC : Yes
Format settings, Reference : 3 frames
Format settings, GOP : M=1, N=25
Codec ID : V_MPEG4/ISO/AVC
Duration : 2 h 0 min
Bit rate : 3 537 kb/s
Width : 1 920 pixels
Height : 804 pixels
Display aspect ratio : 2.40:1
Frame rate mode : Constant
Frame rate : 25.000 FPS
Color space : YUV
Chroma subsampling : 4:2:0
Bit depth : 8 bits
Scan type : Progressive
Bits/(Pixel*Frame) : 0.092
Stream size : 2.98 GiB (95%)
Title : [email protected]
Language : Hindi
Default : Yes
Forced : No
Audio
ID : 2
Format : AC-3
Format/Info : Audio Coding 3
Commercial name : Dolby Digital
Codec ID : A_AC3
Duration : 2 h 0 min
Bit rate mode : Constant
Bit rate : 192 kb/s
Channel(s) : 2 channels
Channel layout : L R
Sampling rate : 48.0 kHz
Frame rate : 31.250 FPS (1536 SPF)
Compression mode : Lossy
Stream size : 166 MiB (5%)
Service kind : Complete Main
Default : Yes
Forced : No
-Скриншоты:


Смотреть онлайн


[trackeroc.org].29957.torrent 
Torrent: Registered   [ 2020-02-19 02:01 ]

Скачать торрент

17 KB

Status: checked
Completed: 9 times
Size: 3.15 GB
 

Admin (18-фев-20)
Similar torrent
Forum Topic Author Size
Strategy, Стратегии Battlestar Galactica Deadlock: Ghost Fleet Offensive (1.4.94) (2017) [RUS/ENG] max+100600 4.4 GB
Шутеры от первого лица Sniper Ghost Warrior Contracts v1.051 (2019) (RUS|ENG|MULTi12) GOG Admin 11.85 GB
Приключенческие игры, Adventure Dark Fall: Ghost Vigil (2020) (ENG) Admin 3.63 GB
Arcade, Аркады, Платформеры Jump King - Ghost of the Babe [ENG / ENG] (2019) Admin 1.16 GB

_________________
[Profile] [PM]
Display posts from previous:    
Reply to topic

The time now is: Today 00:44

All times are GMT + 4 Hours



You cannot post new topics in this forum
You cannot reply to topics in this forum
You cannot edit your posts in this forum
You cannot delete your posts in this forum
You cannot vote in polls in this forum
You cannot attach files in this forum
You can download files in this forum