Разрешите тебя поцеловать... снова (2012) DVDRip скачать торрент

Reply to topic

DL-List and Torrent activity [Update пиров]
Size:  1.37 GB   |    Registered:  1 month 4 days   |    Completed:  0 times

Seeder not seen: Never

 
 
 
 
 
Author Message

BiOS ®

Longevity: 5 years 2 months

Posts: 2262

Location: East Siberia


Post 16-May-2019 07:03

[Quote]

Разрешите тебя поцеловать... снова - Производство: Россия, Телефильм Продакшн
Жанр: Мелодрама, Комедия, Приключения, Семейный
Режиссер: Юрий Морозов
Продюсер: Павел Бабин, Родион Павлючик
Актеры: Игорь Лифанов, Мария Куликова, Борис Щербаков, Виолетта Вакорина, Александр Ратников, Аполлинария Муравьёва, Алёна Корнева, Ирина Егорова, Константин Ужва, Ксения Баскакова, Анастасия Красильникова, Анна Ещенко, Наталья Колдашова
Описание:
Прошло время, и в семье майора Григория Власова и прапорщика Натальи Киселевой наметился разлад. В воинскую часть, где служат супруги, приезжает новенькая медсестра - эффектная блондинка Марина Королькова. Ей нравится Власов, и она пытается его соблазнить. Григорий смущен, Наталья в бешенстве. А дочка Власова, Муха, объявляет Корольковой войну. Взрослые ссорятся, а Муха делает все возможное, чтобы помирить родителей...

Дата премьеры: 25 сентября 2012, «Lizard Cinema Trade»
Продолжительность: 01:45:36
Качество видео: DVDRip
Видео: Xvid, 720x400, ~1655 kb/s
Аудио: AC3, 2 ch, 192 kb/s

Mediainfo:

Общее
Формат : AVI
Формат/Информация : Audio Video Interleave
Размер файла : 1,37 Гбайт
Продолжительность : 1 ч. 45 м.
Общий поток : 1857 Кбит/сек
Программа кодирования : VirtualDubModRus 1.5.10.2 (build 2542/release)
Видео
Идентификатор : 0
Формат : MPEG-4 Visual
Профиль формата : Advanced Simple@L5
Параметр BVOP формата : 2
Параметр QPel формата : Нет
Параметр GMC формата : Без точки перехода
Параметр матрицы формата : Выборочная
Идентификатор кодека : XVID
Идентификатор кодека/Подсказка : XviD
Продолжительность : 1 ч. 45 м.
Битрейт : 1655 Кбит/сек
Ширина : 720 пикселей
Высота : 400 пикселей
Соотношение сторон : 16:9
Частота кадров : 25,000 кадров/сек
Цветовое пространство : YUV
Субдискретизация насыщенности : 4:2:0
Битовая глубина : 8 бит
Тип развёртки : Прогрессивная
Метод сжатия : С потерями
Бит/(Пиксели*Кадры) : 0.230
Размер потока : 1,22 Гбайт (89%)
Библиотека кодирования : XviD 1.2.1 (UTC 2008-12-04)
Аудио
Идентификатор : 1
Формат : AC-3
Формат/Информация : Audio Coding 3
Расширение режима : CM (complete main)
Параметр Endianness формата : Big
Идентификатор кодека : 2000
Продолжительность : 1 ч. 45 м.
Вид битрейта : Постоянный
Битрейт : 192 Кбит/сек
Каналы : 2 канала
Расположение каналов : Front: L R
Частота : 48,0 КГц
Битовая глубина : 16 бит
Метод сжатия : С потерями
Размер потока : 145 Мбайт (10%)
Выравнивание : Разделение по промежуткам
Продолжительность промежутка : 40 мс. (1,00 видеокадр)
Время предзагрузки промежутка : 500 мс.
-Скриншоты:


Смотреть онлайн


[trackeroc.org].28279.torrent 
Torrent: Registered   [ 2019-05-16 07:03 ]

Скачать торрент

15 KB

Status: checked
Completed: 18 times
Size: 1.37 GB
 

Admin (16-май-19)
Similar torrent
Forum Topic Author Size
Российские сериалы Как долго я тебя ждала (2019) WEBRip (сезон 1, серии 1-20 из 20) Admin 10.85 GB
Ужасы ,мистика ,триллеры Ремнант: Всё ещё вижу тебя / I Still See You (2018) WEB-DLRip BiOS 1.46 GB

_________________
[Profile] [PM]
Display posts from previous:    
Reply to topic

The time now is: Today 13:34

All times are GMT + 4 Hours



You cannot post new topics in this forum
You cannot reply to topics in this forum
You cannot edit your posts in this forum
You cannot delete your posts in this forum
You cannot vote in polls in this forum
You cannot attach files in this forum
You can download files in this forum