Русалка / The Siren (2019) WEB-DLRip [MVO] [AD] скачать торрент

Reply to topic

DL-List and Torrent activity [Update пиров]
Size:  1.31 GB   |    Registered:  13 days   |    Completed:  2 times

Seeder not seen: 8 days

 
 
 
 
 
Author Message

BiOS ®

Longevity: 5 years 1 month

Posts: 2265

Location: East Siberia


Post 03-Jun-2019 13:39

[Quote]

Русалка / The Siren- Производство: США / Rusalka Film
Жанр: Фэнтези
Режиссер: Перри Блэкшир
Актеры: Маклеод Эндрюс, Маргарет Йинг Дрэйк, Ивэн Дюмошель ...
Описание:
Убитый горем мужчина ищет в озере чудовище, убившее его жену, тогда как сам монстр оказывается русалкой и влюбляется в другого, ничего не подозревающего немого гостя, снимающего домик по соседству.

Дата мировой премьеры: 2 марта 2019
Продолжительность: 01:17:49
Качество видео: WEB-DLRip
Перевод: Многоголосый закадровый, профессиональный (Синема УС)
Субтитры: Отсутствуют
Реклама: Присутствуют вставки текстовой рекламы
Видео: XviD, 720x304, ~2013 Kbps
Аудио: AC-3, 2 ch, 384 Kbps

MediaInfo:

Общее
Формат : AVI
Формат/Информация : Audio Video Interleave
Профиль формата : OpenDML
Размер файла : 1,31 Гбайт
Продолжительность : 1 ч. 17 м.
Общий поток : 2409 Кбит/сек
Видео
Идентификатор : 0
Формат : MPEG-4 Visual
Профиль формата : Advanced Simple@L5
Параметр BVOP формата : 2
Параметр QPel формата : Нет
Параметр GMC формата : Без точки перехода
Параметр матрицы формата : Default (H.263)
Идентификатор кодека : XVID
Идентификатор кодека/Подсказка : XviD
Продолжительность : 1 ч. 17 м.
Битрейт : 2013 Кбит/сек
Ширина : 720 пикселей
Высота : 304 пикселя
Соотношение сторон : 2,35:1
Частота кадров : 23,976 (24000/1001) кадра/сек
Цветовое пространство : YUV
Субдискретизация насыщенности : 4:2:0
Битовая глубина : 4 бит
Тип развёртки : Прогрессивная
Метод сжатия : С потерями
Бит/(Пиксели*Кадры) : 0.384
Размер потока : 1,09 Гбайт (84%)
Библиотека кодирования : XviD 1.2.1 (UTC 2008-12-04)
Аудио
Идентификатор : 1
Формат : AC-3
Формат/Информация : Audio Coding 3
Расширение режима : CM (complete main)
Параметр Endianness формата : Big
Идентификатор кодека : 2000
Продолжительность : 1 ч. 17 м.
Вид битрейта : Постоянный
Битрейт : 384 Кбит/сек
Каналы : 2 канала
Расположение каналов : Front: L R
Частота : 48,0 КГц
Частота кадров : 31,250 кадров/сек (1536 spf)
Метод сжатия : С потерями
Размер потока : 214 Мбайт (16%)
Выравнивание : Соединение по промежуткам
Продолжительность промежутка : 32 мс. (0,77 видеокадр)
-Скриншоты:


Смотреть онлайн


[trackeroc.org].28466.torrent 
Torrent: Registered   [ 2019-06-03 13:39 ]

Скачать торрент

14 KB

Status: checked
Completed: 8 times
Size: 1.31 GB
 

Admin (03-июн-19)

_________________
[Profile] [PM]
Display posts from previous:    
Reply to topic

The time now is: Today 03:25

All times are GMT + 4 Hours



You cannot post new topics in this forum
You cannot reply to topics in this forum
You cannot edit your posts in this forum
You cannot delete your posts in this forum
You cannot vote in polls in this forum
You cannot attach files in this forum
You can download files in this forum