Самое главное (Александр Ефремов) [2015, Мелодрама, SATRip] скачать торрент

Reply to topic

DL-List and Torrent activity [Update пиров]
Size:  1.29 GB   |    Registered:  3 years 11 months   |    Completed:  4 times
Seeders:  2  [  0 KB/s  ]   Leechers:  4  [  0 KB/s  ]   Show peers in full details
 
 
 
 
Author Message

Матвей ®

Longevity: 3 years 11 months

Posts: 224

Location: Челябинск


Post 11-Oct-2015 15:39

[Quote]

Самое главное --- Производство: Россия, Кинокомпания Русское
Жанр: Мелодрама
Режиссер: Александр Ефремов
Актеры: Олеся Грибок, Борис Хвошнянский, Алёна Ивченко, Павел Яскевич, Иван Стрельцов, Юлианна Михневич, Тамара Миронова, Полина Стефанович, Алексей Юцкевич и др.
Описание:
Даше 20 лет, она живет в провинциальном городе и работает с детьми в художественно-образовательном центре. У Даши есть бабушка, а больше никого: мама умерла несколько лет назад, а о своем отце Даша знает только то, что он погиб еще до ее рождения… Но наступает момент, когда бабушка решается открыть Даше правду. Оказывается, отец Даши вовсе не погиб… Он жив-здоров, живет в Москве и не знает, что у него есть дочь… Даша едет в Москву, чтобы познакомиться со своим отцом – Владимиром Бестужевым. Владимир - бизнесмен, владелец ресторана. Он красив, уверен в себе и относится к категории мужчин «без возраста». Владимир пользуется большим успехом у женщин, но женат никогда не был, предпочитая легкие, свободные отношения, без каких-либо обязательств… Появление взрослой дочери отнюдь не радует Владимира, для него это проблема, которую надо решать… Станут ли отец и дочь по-настоящему родными? Сможет ли Владимир по-новому взглянуть на свою жизнь и понять, что для него самое главное?

КиноПоиск
Дата мировой премьеры: 27 сентября 2015
Дата премьеры в России: 11 октября 2015
Продолжительность: 01:32:00
Качество видео: SATRip
Видео: Xvid, 720x400, ~1800 Кбит/с
Аудио: AC3, 2 ch, 192 Кбит/с, CBR

Mediainfo:

Код:
Общее
Полное имя                               : D:\МОЯ\torrent\Samoe.glavnoe.2015.avi
Формат                                   : AVI
Формат/Информация                        : Audio Video Interleave
Размер файла                             : 1,29 Гбайт
Продолжительность                        : 1 ч. 32 м.
Общий поток                              : 2002 Кбит/сек
Программа кодирования                    : VirtualDubMod 1.5.10.3 | [url=http://www.virtualdub-fr.org]www.virtualdub-fr.org[/url] || (build 2550/release)
Библиотека кодирования                   : VirtualDub build 35491/release
Видео
Идентификатор                            : 0
Формат                                   : MPEG-4 Visual
Профиль формата                          : Advanced [email protected]
Параметр BVOP формата                    : 2
Параметр QPel формата                    : Нет
Параметр GMC формата                     : Без точки перехода
Параметр матрицы формата                 : Default (H.263)
Идентификатор кодека                     : XVID
Идентификатор кодека/Подсказка           : XviD
Продолжительность                        : 1 ч. 32 м.
Битрейт                                  : 1800 Кбит/сек
Ширина                                   : 720 пикселей
Высота                                   : 400 пикселей
Соотношение сторон                       : 16:9
Частота кадров                           : 25,000 кадров/сек
Цветовое пространство                    : YUV
Субдискретизация насыщенности            : 4:2:0
Битовая глубина                          : 8 бит
Тип развёртки                            : Прогрессивная
Метод сжатия                             : С потерями
Бит/(Пиксели*Кадры)                      : 0.250
Размер потока                            : 1,16 Гбайт (90%)
Библиотека кодирования                   : XviD 1.2.1 (UTC 2008-12-04)
Аудио
Идентификатор                            : 1
Формат                                   : AC-3
Формат/Информация                        : Audio Coding 3
Расширение режима                        : CM (complete main)
Параметр Endianness формата              : Big
Идентификатор кодека                     : 2000
Продолжительность                        : 1 ч. 32 м.
Вид битрейта                             : Постоянный
Битрейт                                  : 192 Кбит/сек
Каналы                                   : 2 канала
Расположение каналов                     : Front: L R
Частота                                  : 48,0 КГц
Метод сжатия                             : С потерями
Размер потока                            : 126 Мбайт (10%)
Выравнивание                             : Разделение по промежуткам
Продолжительность промежутка             : 40  мс. (1,00 видеокадр)
Время предзагрузки промежутка            : 500  мс.

Скриншоты:



Смотреть онлайн


[trackeroc.ru].8593.torrent 
Torrent: Registered   [ 2015-10-11 15:39 ]

Скачать торрент

14 KB

Status: checked
Completed: 78 times
Size: 1.29 GB
 

Similar torrent
Forum Topic Author Size
Российские сериалы Неподкупный [серии 1-16 из 16] (Александр Даруга, Марат Ким) [2015, криминал, SATRip] Матвей 9.47 GB

_________________

[Profile] [PM]
Display posts from previous:    
Reply to topic

The time now is: Today 07:02

All times are GMT + 4 Hours



You cannot post new topics in this forum
You cannot reply to topics in this forum
You cannot edit your posts in this forum
You cannot delete your posts in this forum
You cannot vote in polls in this forum
You cannot attach files in this forum
You can download files in this forum