Сектор Газа и Юрий (Хой) Клинских - Гуляй мужик (2010) (Клип) MP4 скачать торрент

Reply to topic

DL-List and Torrent activity [Update пиров]
Size:  54 MB   |    Registered:  3 years 11 months   |    Completed:  7 times
Seeders:  27  [  0 KB/s  ]   Show peers in full details
 
 
 
 
Author Message

BiOS ®

Longevity: 5 years 5 months

Posts: 2336

Location: East Siberia


Post 13-Nov-2015 17:06

[Quote]

Сектор Газа и Юрий (Хой) Клинских - Гуляй мужик - Страна: Россия
Год выпуска: 2010
Жанр: Концерт / Fusion / Punk-Rock / Rapcore / Hard Rock-Режиссер: Vega-Продолжительность: 00:03:03-Описание:
Над родною страной солнышко встаёт,
А российский мужик пьяный уж орёт!
Наплевать на колхоз, тьфу! и на завод!
Девяносто второй выдержать бы год!-Состав: Юрий Клинских — вокал, гитара, клавишные, аранжировка; Ирина Бухарина — бэк-вокал; Игорь Жирнов — лидер-гитара; Вадим Глухов — лидер-гитара-Видеокодек: MPEG-4 AVC/H.264
Битрейт видео: ~2308 Kbps
Размер кадра: 704x384
Качество видео: MP4
Аудиокодек: AAC, 2ch
Битрейт аудио: 154 Kbps-

MediaInfo

Код:
Общее
Полное имя : D:\Архив\Клипы\Сектор Газа - Гуляй мужик.Клип.mp4
Формат : MPEG-4
Профиль формата : Base Media
Идентификатор кодека : isom
Размер файла : 53,8 Мбайт
Продолжительность : 3 м. 3 с.
Режим общего битрейта : Переменный
Общий поток : 2463 Кбит/сек
Исполнитель : Vega
Дата кодирования : UTC 2011-03-17 20:54:57
Дата пометки : UTC 2011-03-17 20:54:57
Программа кодирования : AMVsimple GUI 3.4_standard
Видео
Идентификатор : 1
Формат : AVC
Формат/Информация : Advanced Video Codec
Профиль формата : [email protected]
Параметр CABAC формата : Да
Параметр ReFrames формата : 3 кадра
Идентификатор кодека : avc1
Идентификатор кодека/Информация : Advanced Video Coding
Продолжительность : 3 м. 3 с.
Битрейт : 2308 Кбит/сек
Максимальный битрейт : 6504 Кбит/сек
Ширина : 704 пикселя
Высота : 384 пикселя
Соотношение сторон : 1,85:1
Режим частоты кадров : Постоянный
Частота кадров : 23,976 кадра/сек
Цветовое пространство : YUV
Субдискретизация насыщенности : 4:2:0
Битовая глубина : 8 бит
Тип развёртки : Прогрессивная
Бит/(Пиксели*Кадры) : 0.356
Размер потока : 50,4 Мбайт (94%)
Библиотека кодирования : x264 core 79 r1352 d487de4
Настройки программы : cabac=1 / ref=3 / deblock=1:0:0 / analyse=0x3:0x133 / me=umh / subme=10 / psy=0 / mixed_ref=1 / me_range=16 / chroma_me=1 / trellis=2 / 8x8dct=1 / cqm=0 / deadzone=21,11 / chroma_qp_offset=0 / threads=6 / nr=0 / decimate=1 / mbaff=0 / constrained_intra=0 / bframes=3 / b_pyramid=0 / b_adapt=2 / b_bias=0 / direct=3 / wpredb=1 / wpredp=2 / keyint=250 / keyint_min=25 / scenecut=40 / rc_lookahead=40 / rc=2pass / mbtree=1 / bitrate=2308 / ratetol=1.0 / qcomp=0.60 / qpmin=10 / qpmax=51 / qpstep=4 / cplxblur=20.0 / qblur=0.5 / ip_ratio=1.40 / aq=1:1.00
Дата кодирования : UTC 2011-03-17 20:49:30
Дата пометки : UTC 2011-03-17 20:54:58
Аудио
Идентификатор : 2
Формат : AAC
Формат/Информация : Advanced Audio Codec
Профиль формата : LC
Идентификатор кодека : 40
Продолжительность : 3 м. 3 с.
Вид битрейта : Переменный
Битрейт : 154 Кбит/сек
Максимальный битрейт : 165 Кбит/сек
Каналы : 2 канала
Расположение каналов : Front: L R
Частота : 44,1 КГц
Метод сжатия : С потерями
Размер потока : 3,36 Мбайт (6%)
Дата кодирования : UTC 2011-03-17 20:54:58
Дата пометки : UTC 2011-03-17 20:54:58
-Скриншоты гр.Сектор Газа и Юрий (Хой) Клинских:
Приятного просмотра и много не пейте!


[trackeroc.ru].9737.torrent 
 GOLD TORRENT! DOWNLOAD TRAFFIC DOES NOT CONSIDER! 
Torrent: Registered   [ 2015-11-13 17:13 ]

Скачать торрент

18 KB

Status: checked
Completed: 130 times
Size: 54 MB
 

Admin (13-ноя-15), Angel (16-ноя-15)
Similar torrent
Forum Topic Author Size
Отечественный Рок, Панк, Метал, Альтернатива Сектор Газа - 13 альбомов (1989-2015) Дискография [MP3|320 kbps] BiOS 1.42 GB
Видео клипы Сектор Газа «Дракула Хой» (2014) MPEG-4 | Тизер BiOS 30 MB
Отечественный Рок, Панк, Метал, Альтернатива Юрий Хой и Сектор Газа - Вой на Луну. Лучшее и неизданное (2015) 2CD [FLAC|image + .cue] <Fusion / Punk-Rock / Rapcore / Hard Rock> BiOS 702 MB
Отечественный Рок, Панк, Метал, Альтернатива Юрий Хой и Сектор Газа - Вой на Луну. Лучшее и неизданное (2015) [MP3|320 кб/с] <Fusion / Punk-Rock / Rapcore / Hard Rock> BiOS 222 MB

_________________
[Profile] [PM]

BiOS ®

Longevity: 5 years 5 months

Posts: 2336

Location: East Siberia


Post 15-Nov-2015 06:37 (after 1 day 13 hours)

[Quote]

Хой ЖИВ в наших сердцах!!! Вечная память! 

_________________
[Profile] [PM]
Display posts from previous:    
Reply to topic

The time now is: Today 12:41

All times are GMT + 4 Hours



You cannot post new topics in this forum
You cannot reply to topics in this forum
You cannot edit your posts in this forum
You cannot delete your posts in this forum
You cannot vote in polls in this forum
You cannot attach files in this forum
You can download files in this forum