Шоу века (2015) WEBRip [H.264/1080p-LQ] скачать торрент

Reply to topic

DL-List and Torrent activity [Update пиров]
Size:  505 MB   |    Registered:  11 months   |    Completed:  1 time

Seeder not seen: 11 months 27 days

 
 
 
 
 
Author Message

BiOS ®

Longevity: 5 years 4 months

Posts: 2280

Location: East Siberia


Post 18-Sep-2018 20:36

[Quote]

Шоу века - Производство: Россия
Жанр: Короткометражный, драма, фантастика
Режиссер: Сергей Кузнецов
Актеры: Наталья Медведева, Павел Баршак, Иван Добронравов, Валерия Кожевникова, Юрий Лахин, Никита Недосек
Описание:
После Третьей Мировой войны люди живут на развалинах собственного мира. 60 процентов выживших заражены опасным вирусом. Для спасения человечества элита Земли создала Библиотеку знаний. Маленький Адам рано потерял мать. Его отец не смог убедить Библиотеку знаний поверить в его изобретение и тем самым спасти жизнь супруге. На этот раз Адам оказывается на месте своего отца. Его единственный шанс спасти сына - провести эксперимент по созданию вакцины от смертоносного вируса.
Релиз от: Алехаndr
Продолжительность: 00:29:30
Качество видео: WEBRip
Субтитры: Отсутствуют
Видео: AVC/H.264, 1920x800 (2.40:1), ~2200 Kbps
Аудио: AC3, 2 ch, 192 Kbps

Mediainfo:

Общее
Формат : Matroska
Версия формата : Version 4
Размер файла : 505 Мбайт
Продолжительность : 29 м. 30 с.
Общий поток : 2394 Кбит/сек
Дата кодирования : UTC 2018-09-18 14:54:35
Программа кодирования : mkvmerge v26.0.0 ('In The Game') 64-bit
Библиотека кодирования : libebml v1.3.6 + libmatroska v1.4.9 / Lavf57.71.100
Видео
Идентификатор : 1
Формат : AVC
Формат/Информация : Advanced Video Codec
Профиль формата : [email protected]
Настройки формата : CABAC / 1 Ref Frames
Параметр CABAC формата : Да
Параметр RefFrames формата : 1 кадр
Параметр GOP формата : M=1, N=25
Идентификатор кодека : V_MPEG4/ISO/AVC
Продолжительность : 29 м. 30 с.
Битрейт : 2200 Кбит/сек
Ширина : 1920 пикселей
Высота : 800 пикселей
Соотношение сторон : 2,40:1
Режим частоты кадров : Постоянный
Частота кадров : 25,000 кадров/сек
Цветовое пространство : YUV
Субдискретизация насыщенности : 4:2:0
Битовая глубина : 8 бит
Тип развёртки : Прогрессивная
Бит/(Пиксели*Кадры) : 0.057
Размер потока : 464 Мбайт (92%)
Default : Да
Forced : Нет
Аудио
Идентификатор : 2
Формат : AC-3
Формат/Информация : Audio Coding 3
Коммерческое название : Dolby Digital
Идентификатор кодека : A_AC3
Продолжительность : 29 м. 30 с.
Вид битрейта : Постоянный
Битрейт : 192 Кбит/сек
Каналы : 2 канала
Channel layout : L R
Частота : 48,0 КГц
Частота кадров : 31,250 кадров/сек (1536 SPF)
Битовая глубина : 16 бит
Метод сжатия : С потерями
Размер потока : 40,5 Мбайт (8%)
ServiceKind/String : Complete Main
Default : Да
Forced : Нет
-Скриншоты:


Смотреть онлайн


[trackeroc.ru].26334.torrent 
Torrent: Registered   [ 2018-09-18 20:36 ]

Скачать торрент

21 KB

Status: checked
Completed: 46 times
Size: 505 MB
 

Admin (18-сен-18)
Similar torrent
Forum Topic Author Size
Инди ,Sandbox (GOG) (Linux+Mac) Prison Architect [the Slammer 1.0] (2015) [Ru/Multi] _DD_ 1.28 GB
Инди, Sandbox (GOG) Prison Architect [the Slammer 1.0] (2015) (RUS|ENG) Admin 1.38 GB
Adventure Jotun [v11-09-2019] [RUS / ENG] (2015) GOG Admin 1.54 GB
Песочницы, Sandbox Savage Lands v0.9.1.73 [Early Access] (2015) [ENG] Repack DD Falconrr 1.33 GB
Зарубежные Мультсериалы Звёздная принцесса и силы зла / Стар против Сил Зла / Star vs. the Forces of Evil (2015) WEB-DL (сезон 1, серии 1-13 из 13) Кириллица BiOS 11.37 GB

_________________
[Profile] [PM]
Display posts from previous:    
Reply to topic

The time now is: Today 06:53

All times are GMT + 4 Hours



You cannot post new topics in this forum
You cannot reply to topics in this forum
You cannot edit your posts in this forum
You cannot delete your posts in this forum
You cannot vote in polls in this forum
You cannot attach files in this forum
You can download files in this forum