Следствие ведут Знатоки (1971-2003) DVDRip (Дело № 1-24) скачать торрент

Reply to topic

DL-List and Torrent activity [Update пиров]
Size:  50.45 GB   |    Registered:  18 days   |    Completed:  0 times

Seeder not seen: Never

Leechers:  2  [  596 KB/s  ]   Show peers in full details
 
 
 
 
 
Author Message

BiOS ®

Longevity: 5 years 6 months

Posts: 2341

Location: Earth


Post 25-Oct-2019 01:29

[Quote]

Следствие ведут ЗнаТоКи - Производство: СССР, Россия / Центральное телевидение, Гостелерадио, Про-Синема продакшн
Жанр: Детектив, Криминал, Семейный
Режиссер: Вячеслав Бровкин, Юрий Кротенко, Виктор Турбин, Геннадий Павлов, Василий Давидчук, Владимир Хотиненко, Вячеслав Иртеньев
Актеры: Георгий Мартынюк, Эльза Леждей, Леонид Каневский, Леонид Броневой, Армен Джигарханян, Николай Караченцов, Леонид Куравлёв, Наталья Гундарева, Валерий Носик, Александр Белявский, Александр Пороховщиков и др.
Описание:
«Следствие ведут ЗнаТоКи» — цикл советских детективных телефильмов, один из самых популярных советских сериалов. Главные герои сериала — три работника московской милиции: следователь Знаменский, инспектор уголовного розыска Томин и эксперт-криминалист Кибрит (в последних двух сериях 2002—2003 гг. — Китаева), и название тройки «ЗнаТоКи» — комбинация из первых букв фамилий главных героев. Основная часть серии состоит из 22 фильмов («дел»), выходивших с 1971 по 1989 год, а фильмы № 23 и № 24, вышедшие в 2002 и 2003 годах соответственно, известны также под названием «Следствие ведут ЗнаТоКи. Десять лет спустя».

Возраст: 12+ (зрителям, достигшим 12 лет)
Рейтинг MPAA: PG-13 (детям до 13 лет просмотр нежелателен)
Продолжительность: ~ 50:00:00
Качество видео: DVDRip
Перевод: Не требуется
Субтитры: Отсутствуют
Видео: Xvid, 720х432, 720х536, ~1695-1895 kb/s
Аудио: AC3, 48.0 KHz, 2 ch, 192 kbps

MediaInfo:

MediaInfo дело 1-22:

Video
ID : 0
Format : MPEG-4 Visual
Format profile : Advanced [email protected]
Format settings, BVOP : Yes
Format settings, QPel : No
Format settings, GMC : No warppoints
Format settings, Matrix : Default (H.263)
Codec ID : XVID
Codec ID/Hint : XviD
Duration : 1h 27mn
Bit rate : 1 895 Kbps
Width : 720 pixels
Height : 536 pixels
Display aspect ratio : 4:3
Frame rate : 25.000 fps
Color space : YUV
Chroma subsampling : 4:2:0
Bit depth : 8 bits
Scan type : Progressive
Compression mode : Lossy
Bits/(Pixel*Frame) : 0.196
Stream size : 1.16 GiB (90%)
Writing library : XviD 73
Audio
ID : 1
Format : AC-3
Format/Info : Audio Coding 3
Mode extension : CM (complete main)
Format settings, Endianness : Big
Codec ID : 2000
Duration : 1h 27mn
Bit rate mode : Constant
Bit rate : 192 Kbps
Channel(s) : 2 channels
Channel positions : Front: L R
Sampling rate : 48.0 KHz
Bit depth : 16 bits
Compression mode : Lossy
Stream size : 120 MiB (9%)
Alignment : Aligned on interleaves
Interleave, duration : 40 ms (1.00 video frame)
Interleave, preload duration : 512 ms

MediaInfo дело 23-24:

Video
ID : 0
Format : MPEG-4 Visual
Format profile : Advanced [email protected]
Format settings, BVOP : Yes
Format settings, QPel : No
Format settings, GMC : No warppoints
Format settings, Matrix : Default (H.263)
Codec ID : XVID
Codec ID/Hint : XviD
Duration : 1h 43mn
Bit rate : 1 695 Kbps
Width : 720 pixels
Height : 432 pixels
Display aspect ratio : 1.667
Frame rate : 25.000 fps
Color space : YUV
Chroma subsampling : 4:2:0
Bit depth : 8 bits
Scan type : Progressive
Compression mode : Lossy
Bits/(Pixel*Frame) : 0.218
Stream size : 1.22 GiB (89%)
Writing library : XviD 73
Audio
ID : 1
Format : AC-3
Format/Info : Audio Coding 3
Mode extension : CM (complete main)
Format settings, Endianness : Big
Codec ID : 2000
Duration : 1h 43mn
Bit rate mode : Constant
Bit rate : 192 Kbps
Channel(s) : 2 channels
Channel positions : Front: L R
Sampling rate : 48.0 KHz
Bit depth : 16 bits
Compression mode : Lossy
Stream size : 142 MiB (10%)
Alignment : Aligned on interleaves
Interleave, duration : 40 ms (1.00 video frame)
Interleave, preload duration : 512 ms
-Скриншоты:



Смотреть онлайн


[trackeroc.org].29402.torrent 
 GOLD TORRENT! DOWNLOAD TRAFFIC DOES NOT CONSIDER! 
Torrent: Registered   [ 2019-10-25 01:29 ]

Скачать торрент

130 KB

Status: checked
Completed: 15 times
Size: 50.45 GB
 

Admin (29-окт-19)

_________________
[Profile] [PM]
Display posts from previous:    
Reply to topic

The time now is: Today 23:05

All times are GMT + 4 Hours



You cannot post new topics in this forum
You cannot reply to topics in this forum
You cannot edit your posts in this forum
You cannot delete your posts in this forum
You cannot vote in polls in this forum
You cannot attach files in this forum
You can download files in this forum