Смертельное оружие 4 / Lethal Weapon 4 (1998) BDRip [H.264] скачать торрент

Reply to topic

DL-List and Torrent activity [Update пиров]
Size:  2.88 GB   |    Registered:  3 years 4 months   |    Completed:  6 times
Seeders:  5  [  0 KB/s  ]   Show peers in full details
 
 
 
 
Author Message

BiOS ®

Longevity: 5 years 9 months

Posts: 2408

Location: Earth


Post 06-Sep-2016 13:12

[Quote]

Смертельное оружие 4 / Lethal Weapon 4 «Вся команда в сборе»- Год выпуска: 1998
Жанр: Боевик, Триллер, Криминал
Производство: США / Donner/Shuler-Donner Productions, Silver Pictures, Warner Bros. Pictures Co.
Описание фильма:
Главный герой Риггз ждет, как он надеется, сына от Лорны Коул, а Роджер — внука. Оба уже ощущают возраст, им дали звания капитанов, но сердца их все еще молоды и без приключений не могут. В этом 4-м по счету фильме их дорожки случайно пересеклись с китайскими мафиози, печатающими фальшивые деньги.
В фильме есть юмор, множество перестрелок, драк, погонь, головокружительных трюков. Взрываются бензовозы, машины, корабли садятся на мель, Джет Ли показывает свое мастерство в восточных единоборствах.
Режиссер: Ричард Доннер
Сценарий: Чаннинг Гибсон, Шейн Блэк, Джонатан Лемкин
Продюсер: Ричард Доннер, Джоэл Силвер, Дэн Краччиоло
Актеры: Мэл Гибсон, Дэнни Гловер, Джет Ли, Джо Пеши, Рене Руссо, Крис Рок, Стив Кэхэн, Ким Чан, Дарлин Лав, Трэйси Вульф
Продолжительность: 02:07:23
Качество видео: BDRip
Перевод: Дублированный, многоголосый закадровый, авторский
Язык субтитров: Отсутствуют
*Релиз содержит аудиодорожку с ненормативной лексикой, которая в фильме присутствует в небольшом количестве только в самых острых местах
Дата мировой премьеры: 10 июля 1998
Дата выхода Blu-Ray релиза: 16 ноября 2010, «Юниверсал Пикчерс Рус»
Дата выхода DVD релиза: 31 марта 2011, «ВС трейд»
Видеокодек: MPEG-4 AVC/H.264
Битрейт видео: ~2275 Кбит/сек
Размер кадра: 1024x424
Аудио 1: Русский, AC3 5.1, 384 Кбит/сек, 48 kHz (Дублированный, киностудия имени М. Горького, 1998)
Аудио 2: Русский, AC3 2.0, 192 Кбит/сек, 48 kHz (Многоголосый закадровый, Россия)
Аудио 3: Русский, AC3 2.0, 192 Кбит/сек, 48 kHz (Авторский, А. Гаврилов)
Аудио 4: Русский, AC3 2.0, 192 Кбит/сек, 48 kHz (Авторский, М.Яроцкий «Киберпанк», без цензуры)

MediaInfo:

Общее
Уникальный идентификатор : 254923661278310158897759899689929949618 (0xBFC882E32C1523A48851E704FD5841B2)
Формат : Matroska
Версия формата : Version 4 / Version 2
Размер файла : 2,88 Гбайт
Продолжительность : 2 ч. 7 м.
Общий поток : 3237 Кбит/сек
Дата кодирования : UTC 2014-10-01 10:20:32
Программа кодирования : mkvmerge v7.0.0 ('Where We Going') 32bit built on Jun 9 2014 15:08:34
Библиотека кодирования : libebml v1.3.0 + libmatroska v1.4.1
DURATION : 02:07:23.712000000
NUMBER_OF_FRAMES : 238866
NUMBER_OF_BYTES : 183449088
_STATISTICS_WRITING_APP : mkvmerge v7.0.0 ('Where We Going') 32bit built on Jun 9 2014 15:08:34
_STATISTICS_WRITING_DATE_UTC : 2014-10-01 10:20:32
_STATISTICS_TAGS : BPS DURATION NUMBER_OF_FRAMES NUMBER_OF_BYTES
Видео
Идентификатор : 1
Формат : AVC
Формат/Информация : Advanced Video Codec
Профиль формата : [email protected]
Параметр CABAC формата : Да
Параметр ReFrames формата : 8 кадров
Идентификатор кодека : V_MPEG4/ISO/AVC
Продолжительность : 2 ч. 7 м.
Битрейт : 2275 Кбит/сек
Ширина : 1024 пикселя
Высота : 424 пикселя
Соотношение сторон : 2,40:1
Режим частоты кадров : Постоянный
Частота кадров : 23,976 кадра/сек
Цветовое пространство : YUV
Субдискретизация насыщенности : 4:2:0
Битовая глубина : 8 бит
Тип развёртки : Прогрессивная
Бит/(Пиксели*Кадры) : 0.219
Размер потока : 1,97 Гбайт (68%)
Заголовок : Lethal Weapon 4
Библиотека кодирования : x264 core 125 r2208 d9d2288
Настройки программы : cabac=1 / ref=8 / deblock=1:-1:-1 / analyse=0x3:0x133 / me=umh / subme=9 / psy=1 / psy_rd=1.00:0.10 / mixed_ref=1 / me_range=32 / chroma_me=1 / trellis=2 / 8x8dct=1 / cqm=0 / deadzone=21,11 / fast_pskip=0 / chroma_qp_offset=-3 / threads=6 / lookahead_threads=1 / sliced_threads=0 / nr=0 / decimate=1 / interlaced=0 / bluray_compat=0 / constrained_intra=0 / bframes=3 / b_pyramid=2 / b_adapt=2 / b_bias=0 / direct=3 / weightb=1 / open_gop=0 / weightp=2 / keyint=250 / keyint_min=25 / scenecut=40 / intra_refresh=0 / rc_lookahead=60 / rc=2pass / mbtree=1 / bitrate=2275 / ratetol=1.0 / qcomp=0.60 / qpmin=0 / qpmax=69 / qpstep=4 / cplxblur=20.0 / qblur=0.5 / ip_ratio=1.40 / aq=1:1.00
Язык : English
Default : Да
Forced : Нет
Аудио #1
Идентификатор : 2
Формат : AC-3
Формат/Информация : Audio Coding 3
Расширение режима : CM (complete main)
Параметр Endianness формата : Big
Идентификатор кодека : A_AC3
Продолжительность : 2 ч. 7 м.
Вид битрейта : Постоянный
Битрейт : 384 Кбит/сек
Каналы : 6 каналов
Расположение каналов : Front: L C R, Side: L R, LFE
Частота : 48,0 КГц
Битовая глубина : 16 бит
Метод сжатия : С потерями
Размер потока : 350 Мбайт (12%)
Заголовок : Дубляж, киностудия имени М. Горького, 1998
Язык : Russian
Default : Да
Forced : Нет
Аудио #2
Идентификатор : 3
Формат : AC-3
Формат/Информация : Audio Coding 3
Расширение режима : CM (complete main)
Параметр Endianness формата : Big
Идентификатор кодека : A_AC3
Продолжительность : 2 ч. 7 м.
Вид битрейта : Постоянный
Битрейт : 192 Кбит/сек
Каналы : 2 канала
Расположение каналов : Front: L R
Частота : 48,0 КГц
Битовая глубина : 16 бит
Метод сжатия : С потерями
Размер потока : 175 Мбайт (6%)
Заголовок : Многоголосый закадровый, Россия
Язык : Russian
Default : Нет
Forced : Нет
Аудио #3
Идентификатор : 4
Формат : AC-3
Формат/Информация : Audio Coding 3
Расширение режима : CM (complete main)
Параметр Endianness формата : Big
Идентификатор кодека : A_AC3
Продолжительность : 2 ч. 7 м.
Вид битрейта : Постоянный
Битрейт : 192 Кбит/сек
Каналы : 2 канала
Расположение каналов : Front: L R
Частота : 48,0 КГц
Битовая глубина : 16 бит
Метод сжатия : С потерями
Размер потока : 175 Мбайт (6%)
Заголовок : Авторский, А. Гаврилов
Язык : Russian
Default : Нет
Forced : Нет
Аудио #4
Идентификатор : 5
Формат : AC-3
Формат/Информация : Audio Coding 3
Расширение режима : CM (complete main)
Параметр Endianness формата : Big
Идентификатор кодека : A_AC3
Продолжительность : 2 ч. 7 м.
Вид битрейта : Постоянный
Битрейт : 192 Кбит/сек
Каналы : 2 канала
Расположение каналов : Front: L R
Частота : 48,0 КГц
Битовая глубина : 16 бит
Метод сжатия : С потерями
Размер потока : 175 Мбайт (6%)
Заголовок : Авторский, М.Яроцкий «Киберпанк», без цензуры
Язык : Russian
Default : Нет
Forced : Нет
[/code]
-Скриншоты:


Смотреть онлайн


[trackeroc.ru].14993.torrent 
 GOLD TORRENT! DOWNLOAD TRAFFIC DOES NOT CONSIDER! 
Torrent: Registered   [ 2016-09-06 13:12 ]

Скачать торрент

15 KB

Status: checked
Completed: 131 times
Size: 2.88 GB
 

DarthNihilus (06-сен-16), Angel (19-сен-19)
Similar torrent
Forum Topic Author Size
Боевики Смертельное оружие / Lethal Weapon (1987) BDRip [H.264] BiOS 2.89 GB
Боевики Смертельное оружие / Lethal Weapon (1987-1998) BDRip [Квадрология] BiOS 9.53 GB
Зарубежные сериалы Смертельное оружие / Lethal Weapon [сезон 2 серии 1-22 из 22] (2017) Admin 18.82 GB
Квесты, я ищу, Поиск предметов, Hidden Object Grim Facade 9: A Deadly Dowry. Collector's Edition / За гранью жестокости 9: Смертельное приданое. [P] [RUS / ENG] (2017) Admin 966 MB
Зарубежные сериалы Смертельное оружие / Lethal Weapon (2016) WEB-DLRip (сезон 1, серии 1-18 из 18) BiOS 9.77 GB

_________________
[Profile] [PM]

DarthNihilus

Longevity: 5 years 2 months

Posts: 728

Location: Korriban


Post 06-Sep-2016 17:09 (after 3 hours)

[Quote]

хочешь, чтоб я себя старым почувствовал, да? sorry sorry sorry 

_________________
[Profile] [PM]

BiOS ®

Longevity: 5 years 9 months

Posts: 2408

Location: Earth


Post 06-Oct-2016 18:15 (after 1 month)

[Quote]

хочешь, чтоб я себя старым почувствовал, да? sorry sorry sorry
да ладно) я тоже давно уже не молод)


_________________
[Profile] [PM]
Display posts from previous:    
Reply to topic

The time now is: Today 01:27

All times are GMT + 4 Hours



You cannot post new topics in this forum
You cannot reply to topics in this forum
You cannot edit your posts in this forum
You cannot delete your posts in this forum
You cannot vote in polls in this forum
You cannot attach files in this forum
You can download files in this forum