Танкисты (1939) DVDRip скачать торрент

Reply to topic

DL-List and Torrent activity [Update пиров]
Size:  700 MB   |    Registered:  7 days   |    Completed:  0 times

Seeder not seen: Never

 
 
 
 
 
Author Message

BiOS ®

Longevity: 5 years 4 months

Posts: 2279

Location: East Siberia


Post 10-Sep-2019 14:52

[Quote]

Танкисты - Производство: СССР, Ленфильм
Жанр: Военный, Драма
Режиссер: Роберт Майман, Зиновий Драпкин
Актеры: Григорий Горбунов, Михаил Вольский, Александр Кулаков, Владимир Чобур, Иван Кузнецов, И. Орлов, Василий Меркурьев, Дмитрий Дудников и другие
Описание:
О действиях советских танкистов в возможной боевой обстановке. Старый вояка — генерал фон Бюллер — весьма умело командует вражескими войсками, сосредоточившимися у города Энсбурга и уже успешно атаковавшими с неба советский город Красноармейск. Танковая группа во главе с комиссаром Ткаченко получает задание перейти на территорию агрессора, разгромить его главные силы и захватить штаб врага...

Возраст: 12+ (зрителям, достигшим 12 лет)
Продолжительность: 01:22:52
Качество видео: DVDRip
Видео: XviD build 50, 704x528 (1.33:1), ~982 Kbps , kbps, 25fps
Аудио: AC3, 2ch, 192kbps

MediaInfo:

Общее
Формат : AVI
Формат/Информация : Audio Video Interleave
Размер файла : 700 Мбайт
Продолжительность : 1 ч. 22 м.
Общий поток : 1181 Кбит/сек
Программа кодирования : VirtualDubMod 1.5.4.1 (build 2178/release)
Библиотека кодирования : VirtualDubMod build 2178/release
Видео
Идентификатор : 0
Формат : MPEG-4 Visual
Профиль формата : Advanced [email protected]
Параметр BVOP формата : 1
Параметр QPel формата : Нет
Параметр GMC формата : Без точки перехода
Параметр матрицы формата : Выборочная
Идентификатор кодека : XVID
Идентификатор кодека/Подсказка : XviD
Продолжительность : 1 ч. 22 м.
Битрейт : 982 Кбит/сек
Ширина : 704 пикселя
Высота : 528 пикселей
Соотношение сторон : 4:3
Частота кадров : 25,000 кадров/сек
Цветовое пространство : YUV
Субдискретизация насыщенности : 4:2:0
Битовая глубина : 8 бит
Тип развёртки : Прогрессивная
Метод сжатия : С потерями
Бит/(Пиксели*Кадры) : 0.106
Размер потока : 582 Мбайт (83%)
Библиотека кодирования : XviD 1.2.1 (UTC 2008-12-04)
Аудио
Идентификатор : 1
Формат : AC-3
Формат/Информация : Audio Coding 3
Расширение режима : CM (complete main)
Идентификатор кодека : 2000
Продолжительность : 1 ч. 22 м.
Вид битрейта : Постоянный
Битрейт : 192 Кбит/сек
Каналы : 2 канала
Расположение каналов : Front: L R
Частота : 48,0 КГц
Битовая глубина : 16 бит
Метод сжатия : С потерями
Размер потока : 114 Мбайт (16%)
Выравнивание : Разделение по промежуткам
Продолжительность промежутка : 96 мс. (2,40 видеокадра)
Время предзагрузки промежутка : 96 мс.
Язык : Russian
-Скриншоты:


Смотреть онлайн


[trackeroc.org].29084.torrent 
Torrent: Registered   [ 2019-09-10 14:52 ]

Скачать торрент

14 KB

Status: checked
Completed: 17 times
Size: 700 MB
 

Admin (10-сен-19), Angel (10-сен-19)
Similar torrent
Forum Topic Author Size
Фантастика ,Фэнтези Ева: Искусственный разум / Eva (2011) [H.264] DVDRip BiOS 1.45 GB
Ужасы ,мистика ,триллеры Живая мертвечина / Мертв мозгом / Braindead / Dead Alive (1992) [Director's Cut] DVDRip [H.264] BiOS 2.05 GB
Военные Охота на единорога (1989) DVDRip BiOS 1.46 GB
Военные Жаворонок (1964) DVDRip BiOS 1.19 GB

_________________
[Profile] [PM]
Display posts from previous:    
Reply to topic

The time now is: Today 15:05

All times are GMT + 4 Hours



You cannot post new topics in this forum
You cannot reply to topics in this forum
You cannot edit your posts in this forum
You cannot delete your posts in this forum
You cannot vote in polls in this forum
You cannot attach files in this forum
You can download files in this forum