Тёмное чувство / Dark Sense (2019) WEB-DLRip [MVO] [AD] скачать торрент

Reply to topic

DL-List and Torrent activity [Update пиров]
Size:  1.31 GB   |    Registered:  2 months 15 days   |    Completed:  1 time

Seeder not seen: 2 months 11 days

 
 
 
 
 
Author Message

BiOS ®

Longevity: 5 years 4 months

Posts: 2256

Location: East Siberia


Post 03-Jun-2019 13:43

[Quote]

Тёмное чувство / Dark Sense- Производство: Великобритания / Encaptivate, First and Only
Жанр: Триллер
Режиссер: Магнус Уэйк
Актеры: Джеймс Робинсон, Гордон Кеннеди, Шиван Редмонд, Джим Старджон, Ким Аллан, Шэрон Янг, Шейн О'Миара, Маргарет Энн Бэйн, Кенни Блит, Керн Фалконер
Описание:
Саймон, молодой человек с исключительными способностями, выслеживает серийного убийцу, сражаясь не только со своими собственными демонами, но и с засекреченными государственными спецслужбами, которые решили, что Саймон слишком опасен, чтобы оставаться на свободе и жить обычной жизнью.

Дата мировой премьеры: 17 мая 2019
Продолжительность: 01:32:21
Качество видео: WEB-DLRip
Перевод: Многоголосый закадровый, профессиональный (Синема УС)
Субтитры: Отсутствуют
Реклама: Присутствуют вставки текстовой рекламы
Видео: XviD, 720x304, ~1640 Kbps
Аудио: AC-3, 2 ch, 384 Kbps

MediaInfo:

Общее
Формат : AVI
Формат/Информация : Audio Video Interleave
Профиль формата : OpenDML
Размер файла : 1,31 Гбайт
Продолжительность : 1 ч. 32 м.
Общий поток : 2037 Кбит/сек
Видео
Идентификатор : 0
Формат : MPEG-4 Visual
Профиль формата : Advanced [email protected]
Параметр BVOP формата : 2
Параметр QPel формата : Нет
Параметр GMC формата : Без точки перехода
Параметр матрицы формата : Выборочная
Идентификатор кодека : XVID
Идентификатор кодека/Подсказка : XviD
Продолжительность : 1 ч. 32 м.
Битрейт : 1640 Кбит/сек
Ширина : 720 пикселей
Высота : 304 пикселя
Соотношение сторон : 2,35:1
Частота кадров : 23,976 (24000/1001) кадра/сек
Цветовое пространство : YUV
Субдискретизация насыщенности : 4:2:0
Битовая глубина : 8 бит
Тип развёртки : Прогрессивная
Метод сжатия : С потерями
Бит/(Пиксели*Кадры) : 0.313
Размер потока : 1,06 Гбайт (81%)
Библиотека кодирования : XviD 1.2.1 (UTC 2008-12-04)
Аудио
Идентификатор : 1
Формат : AC-3
Формат/Информация : Audio Coding 3
Расширение режима : CM (complete main)
Параметр Endianness формата : Big
Идентификатор кодека : 2000
Продолжительность : 1 ч. 32 м.
Вид битрейта : Постоянный
Битрейт : 384 Кбит/сек
Каналы : 2 канала
Расположение каналов : Front: L R
Частота : 48,0 КГц
Частота кадров : 31,250 кадров/сек (1536 spf)
Метод сжатия : С потерями
Размер потока : 254 Мбайт (19%)
Выравнивание : Соединение по промежуткам
Продолжительность промежутка : 32 мс. (0,77 видеокадр)
-Скриншоты:


Смотреть онлайн


[trackeroc.org].28467.torrent 
Torrent: Registered   [ 2019-06-03 13:43 ]

Скачать торрент

14 KB

Status: checked
Completed: 9 times
Size: 1.31 GB
 

Admin (03-июн-19)
Similar torrent
Forum Topic Author Size
Фантастика ,Фэнтези Тёмное пробуждение / Black Wake (2018) WEB-DLRip [MVO] [AD] BiOS 1.33 GB
Квесты, я ищу, Поиск предметов, Hidden Object Darkheart. Flight of The Harpies / Темное Сердце: Полет гарпий [RUS / ENG] (2017) Admin 1.01 GB
Зарубежные сериалы Тёмное дитя / Orphan Black (2017) (сезон 5, серии 1-6 из 10) Admin 2.93 GB
Зарубежные сериалы Восьмое чувство / Sense8 (2017) WEBRip [H.264/1080p] (сезон 2, серии 1-10 из 10) OmskBird [AD] BiOS 41 GB

_________________
[Profile] [PM]
Display posts from previous:    
Reply to topic

The time now is: Today 04:36

All times are GMT + 4 Hours



You cannot post new topics in this forum
You cannot reply to topics in this forum
You cannot edit your posts in this forum
You cannot delete your posts in this forum
You cannot vote in polls in this forum
You cannot attach files in this forum
You can download files in this forum