Тимур и его команда (1940) DVDRip скачать торрент

Reply to topic

DL-List and Torrent activity [Update пиров]
Size:  1.09 GB   |    Registered:  3 years 2 months   |    Completed:  2 times

Seeder not seen: 2 years 4 months

 
 
 
 
 
Author Message

BiOS ®

Longevity: 5 years 4 months

Posts: 2280

Location: East Siberia


Post 04-Jul-2016 04:25

[Quote]

Тимур и его команда - Русское название: Тимур и его команда
Год выпуска: 1940
Жанр: Приключения, Семейный, Детектив
Описание фильма:
Нестареющий фильм о Тимуре - подростке, организовавшем в дачном поселке команду, тайком помогающую всем, кто нуждается в помощи, а особенно тем, у кого кто-нибудь служит в Красной Армии. О его друзьях (Коле Колокольчикове, Гейке и других) и врагах-хулиганах - Квакине (Кутузов) и Фигуре. О первой любви. Замечательная картина, которую, возможно, с удовольствием посмотрят и современные дети.
Режиссер: Александр Разумный
Актеры: Петр Савин, Лев Потемкин, Виктор Селезнев, Николай Анненков, Марина Ковалева, Екатерина Деревщикова, Николай Кутузов, Игорь Смирнов
Продолжительность: 01:16:09
Видеокодек: DivX 5
Битрейт видео: ~1854 kb/s
Размер кадра: 688x512
Качество видео: DVDRip
Аудиокодек: AC3 2
Битрейт аудио: 192 kb/s

MediaInfo

Код:
Формат                           : AVI
Формат/Информация                : Audio Video Interleave
Размер файла                     : 1,09 Гбайт
Продолжительность                : 1 ч. 16 м.
Общий поток                      : 2056 Кбит/сек
Программа кодирования            : VirtualDubModRus 1.5.10.2 (build 2542/release)
Библиотека кодирования           : VirtualDubMod build 2542/release
Видео
Идентификатор                    : 0
Формат                           : MPEG-4 Visual
Параметр BVOP формата            : 1
Параметр QPel формата            : Нет
Параметр GMC формата             : Без точки перехода
Параметр матрицы формата         : Default (H.263)
Режим смешивания                 : Сжатый битовый поток
Идентификатор кодека             : DX50
Идентификатор кодека/Подсказка   : DivX 5
Продолжительность                : 1 ч. 16 м.
Битрейт                          : 1854 Кбит/сек
Ширина                           : 688 пикс.
Высота                           : 512 пикс.
Соотношение сторон               : 4:3
Частота кадров                   : 25,000 кадр/сек
Цветовое пространство            : YUV
Подвыборка цветности             : 4:2:0
Битовая глубина                  : 8 бит
Тип развёртки                    : Прогрессивная
Метод сжатия                     : С потерями
Бит/(Пиксели*Кадры)              : 0.211
Размер потока                    : 1010 Мбайт (90%)
Библиотека кодирования           : DivX 6.8.3-6.8.4 (UTC 2008-06-07)
Аудио
Идентификатор                    : 1
Формат                           : AC-3
Формат/Информация                : Audio Coding 3
Расширение режима                : CM (complete main)
Идентификатор кодека             : 2000
Продолжительность                : 1 ч. 16 м.
Вид битрейта                     : Постоянный
Битрейт                          : 192 Кбит/сек
Канал(ы)                         : 2 канала(ов)
Расположение каналов             : Front: L R
Частота                          : 48,0 КГц
Битовая глубина                  : 16 бит
Метод сжатия                     : С потерями
Размер потока                    : 105 Мбайт (9%)
Выравнивание                     : Соединение по промежуткам
Продолжительность промежутка     : 40  мс. (1,00 видеокадр)
Время предзагрузки промежутка    : 512 ms
-Скриншоты:


Смотреть онлайн


[trackeroc.ru].13595.torrent 
Torrent: Registered   [ 2016-07-04 04:25 ]

Скачать торрент

12 KB

Status: checked
Completed: 102 times
Size: 1.09 GB
 

Similar torrent
Forum Topic Author Size
Российские ХБ (Гарик Харламов & Тимур Батрутдинов) + Фильм о фильме (Сезон 1-2, выпуски 1-36) (2013, 2018) SATRip BiOS 10.35 GB
Российские Тимур и его команда (1976) DVDRip (2 серии) BiOS 2.05 GB

_________________
[Profile] [PM]
Display posts from previous:    
Reply to topic

The time now is: Today 07:31

All times are GMT + 4 Hours



You cannot post new topics in this forum
You cannot reply to topics in this forum
You cannot edit your posts in this forum
You cannot delete your posts in this forum
You cannot vote in polls in this forum
You cannot attach files in this forum
You can download files in this forum