Тимур и его команда (1976) DVDRip (2 серии) скачать торрент

Reply to topic

DL-List and Torrent activity [Update пиров]
Size:  2.05 GB   |    Registered:  3 years 4 months   |    Completed:  8 times

Seeder not seen: 9 months 12 days

 
 
 
 
 
Author Message

BiOS ®

Longevity: 5 years 7 months

Posts: 2354

Location: Earth


Post 04-Jul-2016 04:32

[Quote]

Тимур и его команда - Год выпуска: 1976
Производство: СССР, Одесская киностудия
Жанр: Детский, приключения, семейный
Режиссер: Александр Бланк, Сергей Линков
Актеры: Антон Табаков, Инга Третьякова, Вячеслав Баранов, Леонид Куравлев, Константин Леонов, Дмитрий Пасынков, Лев Идашкин, Владимир Шкаликов, Сергей Молчанов, Дмитрий Мулев, Владимир Дубровин, Людмила Мухина, Людмила Гаврилова, Николай Гринько, Бруно Фрейндлих, Татьяна Федорова, Александра Денисова, Сергей Массарский, Генрих Осташевский, Маргарита Пресич, Любовь Соколова, Александр Бордуков, Юрий Воробьев, Елена Бромлей, Владимир Вихров, Александр Довготько, Владимир Волков, Елизавета Кузюрина
Описание фильма:По одноименному произведению Аркадия Гайдара.
Предвоенные годы. Женя Александрова, дочь красного командира, на даче под Москвой знакомится с Тимуром. Ее сестра Ольга принимает Тимура за хулигана и препятствует дружбе младшей сестры с ним. На самом же деле, Тимур возглавил группу пионеров, которые тайно оказывают помощь семьям красноармейцев. В дачном поселке орудует банда хулиганов, возглавляемая Мишкой Квакиным. Пионеры «воспитывают» хулиганов своими способами — ультиматумами, силой и внушением.
Продолжительность: 01:03:15 + 01:03:28
Качество видео: DVDRip
Видеокодек: DivX 5
Битрейт видео: 2114 Кбит/сек (1-ая серия), 2113 Кбит/сек (2-ая серия)
Размер кадра: 720x480
Аудио: Русский, 48 kHz, AC3 Dolby Digital, 2/0 (L,R) ch, 192 Кбит/сек

MediaInfo

Код:
Общее
Формат                                   : AVI
Формат/Информация                        : Audio Video Interleave
Размер файла                             : 1,03 Гбайт
Продолжительность                        : 1 ч. 3 м.
Общий поток                              : 2314 Кбит/сек
Программа кодирования                    : VirtualDubModRus 1.5.10.2 (build 2542/release)
Библиотека кодирования                   : VirtualDubMod build 2542/release
Видео
Идентификатор                            : 0
Формат                                   : MPEG-4 Visual
Параметр BVOP формата                    : 1
Параметр QPel формата                    : Нет
Параметр GMC формата                     : Без точки перехода
Параметр матрицы формата                 : Default (H.263)
Режим смешивания                         : Сжатый битовый поток
Идентификатор кодека                     : DX50
Идентификатор кодека/Подсказка           : DivX 5
Продолжительность                        : 1 ч. 3 м.
Битрейт                                  : 2113 Кбит/сек
Ширина                                   : 720 пикселей
Высота                                   : 480 пикселей
Соотношение сторон                       : 3:2
Частота кадров                           : 25,000 кадров/сек
Стандарт вещания                         : NTSC
Цветовое пространство                    : YUV
Субдискретизация насыщенности            : 4:2:0
Битовая глубина                          : 8 бит
Тип развёртки                            : Прогрессивная
Метод сжатия                             : С потерями
Бит/(Пиксели*Кадры)                      : 0.245
Размер потока                            : 959 Мбайт (91%)
Библиотека кодирования                   : DivX 6.8.3-6.8.4 (UTC 2008-06-07)
Аудио
Идентификатор                            : 1
Формат                                   : AC-3
Формат/Информация                        : Audio Coding 3
Расширение режима                        : CM (complete main)
Параметр Endianness формата              : Big
Идентификатор кодека                     : 2000
Продолжительность                        : 1 ч. 3 м.
Вид битрейта                             : Постоянный
Битрейт                                  : 192 Кбит/сек
Каналы                                   : 2 канала
Расположение каналов                     : Front: L R
Частота                                  : 48,0 КГц
Битовая глубина                          : 16 бит
Метод сжатия                             : С потерями
Размер потока                            : 87,2 Мбайт (8%)
Выравнивание                             : Соединение по промежуткам
Продолжительность промежутка             : 40  мс. (1,00 видеокадр)
Время предзагрузки промежутка            : 512  мс.
-Скриншоты:


Смотреть онлайн


[trackeroc.ru].13596.torrent 
Torrent: Registered   [ 2016-07-04 04:32 ]

Скачать торрент

11 KB

Status: checked
Completed: 109 times
Size: 2.05 GB
 

Similar torrent
Forum Topic Author Size
Российские ХБ (Гарик Харламов & Тимур Батрутдинов) + Фильм о фильме (Сезон 1-2, выпуски 1-36) (2013, 2018) SATRip BiOS 10.35 GB
Российские Тимур и его команда (1940) DVDRip BiOS 1.09 GB

_________________
[Profile] [PM]
Display posts from previous:    
Reply to topic

The time now is: Today 20:07

All times are GMT + 4 Hours



You cannot post new topics in this forum
You cannot reply to topics in this forum
You cannot edit your posts in this forum
You cannot delete your posts in this forum
You cannot vote in polls in this forum
You cannot attach files in this forum
You can download files in this forum