Толя-робот (2019) WEB-DL [H.264/720p-LQ] (сезон 1, серии 1-8 из 8) скачать торрент

Reply to topic

DL-List and Torrent activity [Update пиров]
Size:  6.51 GB   |    Registered:  20 days   |    Completed:  0 times

Seeder not seen: Never

 
 
 
 
 
Author Message

BiOS ®

Longevity: 5 years 2 months

Posts: 2262

Location: East Siberia


Post 30-May-2019 22:35

[Quote]

Толя-робот
«Ты можешь всё!»
- Производство: Россия / ТНТ-PREMIER Studios
Жанр: драма, комедия
Режиссер: Алексей Нужный
Актеры: Александр Паль, Азамат Мусагалиев, Маргарита Аброськина, Федор Инсаров, Евгений Кулик, Валентина Мазунина, Михаил Орлов, Евгений Коряковский, Екатерина Директоренко, Елена Валюшкина и др.
Описание:
Толя — молодой провинциальный парень без рук и ног, который оказывается более сильным, жизнелюбивым и оптимистичным, чем окружающие его люди с руками и ногами. Обретя бионические протезы, он начинает жить на полную катушку: борется за лучшую девушку в своём городе, организует ТСЖ и отстаивает свой дом, включается в жизнь своих близких и увлекает их за собой — к свету и мечте.

Возраст: 16+ (зрителям, достигшим 16 лет)
Дата российской премьеры: 20 мая 2019
Продолжительность: ~00:45:00 серия
Качество видео: WEB-DL
Видео: AVC/H.264, 1280x544, ~2300 Kbps
Аудио: AC3, 2 ch, 192 Kbps

Mediainfo:

Общее
Формат : Matroska
Версия формата : Version 2
Размер файла : 871 Мбайт
Продолжительность : 47 м. 54 с.
Режим общего битрейта : Постоянный
Общий поток : 2541 Кбит/сек
Дата кодирования : UTC 2019-05-20 16:34:20
Программа кодирования : mkvmerge v5.8.0 ('No Sleep / Pillow') built on Sep 2 2012 15:37:04
Библиотека кодирования : libebml v1.2.3 + libmatroska v1.3.0
Видео
Идентификатор : 1
Формат : AVC
Формат/Информация : Advanced Video Codec
Профиль формата : High@L4.1
Настройки формата : CABAC / 4 Ref Frames
Параметр CABAC формата : Да
Параметр RefFrames формата : 4 кадра
Идентификатор кодека : V_MPEG4/ISO/AVC
Продолжительность : 47 м. 54 с.
Вид битрейта : Постоянный
Битрейт : 2298 Кбит/сек
Номинальный битрейт : 2600 Кбит/сек
Ширина : 1280 пикселей
Высота : 544 пикселя
Соотношение сторон : 2,35:1
Режим частоты кадров : Постоянный
Частота кадров : 25,000 кадров/сек
Стандарт вещания : PAL
Цветовое пространство : YUV
Субдискретизация насыщенности : 4:2:0
Битовая глубина : 8 бит
Тип развёртки : Прогрессивная
Бит/(Пиксели*Кадры) : 0.132
Размер потока : 787 Мбайт (90%)
Язык : Russian
Default : Да
Forced : Нет
Цветовой диапазон : Limited
Основные цвета : BT.709
Характеристики трансфера : BT.709
Коэффициенты матрицы : BT.709
Аудио
Идентификатор : 2
Формат : AC-3
Формат/Информация : Audio Coding 3
Коммерческое название : Dolby Digital
Идентификатор кодека : A_AC3
Продолжительность : 47 м. 54 с.
Вид битрейта : Постоянный
Битрейт : 192 Кбит/сек
Каналы : 2 канала
ChannelLayout : L R
Частота : 48,0 КГц
Частота кадров : 31,250 кадров/сек (1536 SPF)
Битовая глубина : 16 бит
Метод сжатия : С потерями
Размер потока : 65,8 Мбайт (8%)
Язык : Russian
ServiceKind/String : Complete Main
Default : Да
Forced : Нет
-Скриншоты:


Смотреть онлайн


[trackeroc.org].28432.torrent 
Torrent: Registered   [ 2019-05-30 22:35 ]

Скачать торрент

34 KB

Status: checked
Completed: 8 times
Size: 6.51 GB
 

Admin (30-май-19)
Similar torrent
Forum Topic Author Size
Русификаторы для игр Borderlands: Game of the Year Enhanced (2019) ~ Русификатор для Steam-версии BiOS 147 MB
Зарубежные сериалы Болотная тварь / Swamp Thing (2019) WEB-DLRip [H.264/720p-LQ] (сезон 1, серии 1-3 из 10) SDI Media BiOS 3.66 GB
Квесты, я ищу, Поиск предметов, Hidden Object The Unseen Fears 4: Stories Untold [ENG / ENG] (2019) Admin 829 MB
Strategy, Стратегии Islanders v19.06.2019 [RUS + ENG] (2019) Admin 37 MB
Шутеры от первого лица Genesis Alpha One v2.0 (2019) (RUS/ENG/MULTi7) Admin 4.36 GB

_________________
[Profile] [PM]
Display posts from previous:    
Reply to topic

The time now is: Today 13:20

All times are GMT + 4 Hours



You cannot post new topics in this forum
You cannot reply to topics in this forum
You cannot edit your posts in this forum
You cannot delete your posts in this forum
You cannot vote in polls in this forum
You cannot attach files in this forum
You can download files in this forum