Убойная сила (2000-2005) DVDRip [H.264] (сезон 1-6, серии 1-57 из 57) скачать торрент

Reply to topic

DL-List and Torrent activity [Update пиров]
Size:  41.07 GB   |    Registered:  3 months 10 days   |    Completed:  1 time

Seeder not seen: 3 months

 
 
 
 
 
Author Message

BiOS ®

Longevity: 5 years 4 months

Posts: 2256

Location: East Siberia


Post 10-May-2019 04:20

[Quote]

УБОЙНАЯ СИЛА «This is not Just a new season. It is all new and different adventures of your favorite policemen from St. Petersburg»- Производство: Россия / ОРТ, студия "Момент", Урсус-фильм
Жанр: боевик, комедия, криминал, детектив
Режиссер: Александр Рогожкин, Виктор Бутурлин, Евгений Татарский
Актеры: Константин Хабенский, Андрей Федорцов, Евгений Леонов-Гладышев, Евгений Ганелин, Сергей Кошонин, Сергей Мурзин, Александр Тютрюмов, Георгий Штиль, Виктор Костецкий, Николай Лаврови др.
Описание:
В центре сюжета оперативные сотрудники районного отдела милиции и убойного отдела главка в Санкт-Петербурге. Главные герои сериала Игорь Плахов и Василий Рогов сотрудники милиции, их служба связана с раскрытием как бытовых преступлений, так и борьбой с организованной преступностью. Работая за копеечную зарплату и рискуя жизнью, герои исполняют свой долг.

Возраст: 12+ (зрителям, достигшим 12 лет)
Продолжительность: ~00:50:00 серия
Качество видео: DVDRip
Видео: AVC/H.264, [email protected], ~1800 kbps
Аудио: AC3, 2 ch, 192 kbps

Mediainfo:

General
Unique ID : 225435420411270836061645151468907446228 (0xA999485D0840540883CFE498EDE0BFD4)
Complete name : 1. Служебное соответствие.mkv
Format : Matroska
Format version : Version 2
File size : 779 MiB
Duration : 54 min 39 s
Overall bit rate : 1 994 kb/s
Encoded date : UTC 2019-02-27 10:17:11
Writing application : mkvmerge v7.8.0 ('River Man') 32bit built on Apr 3 2015 12:11:22
Writing library : libebml v1.3.1 + libmatroska v1.4.2
Video
ID : 1
Format : AVC
Format/Info : Advanced Video Codec
Format profile : [email protected]
Format settings : CABAC / 6 Ref Frames
Format settings, CABAC : Yes
Format settings, ReFrames : 6 frames
Codec ID : V_MPEG4/ISO/AVC
Duration : 54 min 39 s
Bit rate : 1 800 kb/s
Width : 684 pixels
Height : 456 pixels
Display aspect ratio : 16:10
Frame rate mode : Constant
Frame rate : 25.000 FPS
Color space : YUV
Chroma subsampling : 4:2:0
Bit depth : 8 bits
Scan type : Progressive
Bits/(Pixel*Frame) : 0.231
Stream size : 689 MiB (88%)
Writing library : x264 core 157 r2935 545de2f
Encoding settings : cabac=1 / ref=6 / deblock=1:0:0 / analyse=0x3:0x113 / me=umh / subme=8 / psy=1 / psy_rd=1.00:0.00 / mixed_ref=1 / me_range=24 / chroma_me=1 / trellis=1 / 8x8dct=1 / cqm=0 / deadzone=21,11 / fast_pskip=1 / chroma_qp_offset=-2 / threads=4 / lookahead_threads=4 / sliced_threads=0 / nr=0 / decimate=1 / interlaced=0 / bluray_compat=0 / stitchable=1 / constrained_intra=0 / bframes=6 / b_pyramid=2 / b_adapt=1 / b_bias=0 / direct=3 / weightb=1 / open_gop=0 / weightp=2 / keyint=250 / keyint_min=25 / scenecut=40 / intra_refresh=0 / rc_lookahead=40 / rc=2pass / mbtree=1 / bitrate=1800 / ratetol=1.0 / qcomp=0.60 / qpmin=0 / qpmax=69 / qpstep=4 / cplxblur=20.0 / qblur=0.5 / ip_ratio=1.40 / aq=1:1.00
Default : Yes
Forced : No
Audio
ID : 2
Format : AC-3
Format/Info : Audio Coding 3
Commercial name : Dolby Digital
Codec ID : A_AC3
Duration : 54 min 39 s
Bit rate mode : Constant
Bit rate : 192 kb/s
Channel(s) : 2 channels
Channel layout : L R
Sampling rate : 48.0 kHz
Frame rate : 31.250 FPS (1536 SPF)
Bit depth : 16 bits
Compression mode : Lossy
Stream size : 75.1 MiB (10%)
Service kind : Complete Main
Default : Yes
Forced : No
-Скриншоты:


Смотреть онлайн


[trackeroc.org].28230.torrent 
Torrent: Registered   [ 2019-05-10 04:20 ]

Скачать торрент

111 KB

Status: checked
Completed: 38 times
Size: 41.07 GB
 

Admin (10-май-19)
Similar torrent
Forum Topic Author Size
Фантастика ,Фэнтези Миссия «Серенити» / Serenity (2005) BDRip [H.264/720р-LQ] BiOS 2.68 GB
Фантастика ,Фэнтези Обмен телами / Xchange (2000) DVDRip [MVO] BiOS 1.46 GB
Strategy Blitzkrieg Anthology (2005) (ENG|RUS|GER) GOG Admin 11.5 GB
Документальные ,Трейлеры Брюс Ли. Бессмертие дракона / Bruce Lee: Immortal Dragon (2000) SATRip BiOS 715 MB

_________________
[Profile] [PM]
Display posts from previous:    
Reply to topic

The time now is: Today 00:08

All times are GMT + 4 Hours



You cannot post new topics in this forum
You cannot reply to topics in this forum
You cannot edit your posts in this forum
You cannot delete your posts in this forum
You cannot vote in polls in this forum
You cannot attach files in this forum
You can download files in this forum